SHARE
TWEET

Death.Valley.1982.1080p.BluRay.REMUX.AVC.DTS-HD.MA.5.1-EPSiLON

a guest Jun 17th, 2019 18 Never
Not a member of Pastebin yet? Sign Up, it unlocks many cool features!
  1. General
  2. Complete name                            : Death.Valley.1982.1080p.BluRay.REMUX.AVC.DTS-HD.MA.5.1-EPSiLON.mkv
  3. Format                                   : Matroska
  4. Format version                           : Version 4
  5. File size                                : 18.4 GiB
  6. Duration                                 : 1 h 28 min
  7. Overall bit rate mode                    : Variable
  8. Overall bit rate                         : 29.9 Mb/s
  9. Encoded date                             : UTC 2018-03-20 22:29:18
  10. Writing application                      : mkvmerge v21.0.0 ('Tardigrades Will Inherit The Earth') 64-bit
  11. Writing library                          : libebml v1.3.5 + libmatroska v1.4.8
  12.  
  13. Video
  14. ID                                       : 1
  15. Format                                   : AVC
  16. Format/Info                              : Advanced Video Codec
  17. Format profile                           : High@L4.1
  18. Format settings                          : CABAC / 3 Ref Frames
  19. Format settings, CABAC                   : Yes
  20. Format settings, Reference frames        : 3 frames
  21. Format settings, GOP                     : M=3, N=12
  22. Codec ID                                 : V_MPEG4/ISO/AVC
  23. Duration                                 : 1 h 28 min
  24. Bit rate mode                            : Variable
  25. Bit rate                                 : 26.2 Mb/s
  26. Maximum bit rate                         : 35.0 Mb/s
  27. Width                                    : 1 920 pixels
  28. Height                                   : 1 080 pixels
  29. Display aspect ratio                     : 16:9
  30. Frame rate mode                          : Constant
  31. Frame rate                               : 23.976 (24000/1001) FPS
  32. Standard                                 : NTSC
  33. Color space                              : YUV
  34. Chroma subsampling                       : 4:2:0
  35. Bit depth                                : 8 bits
  36. Scan type                                : Progressive
  37. Bits/(Pixel*Frame)                       : 0.528
  38. Stream size                              : 16.2 GiB (88%)
  39. Title                                    : MPEG-4 AVC Video / 26249 kbps / 1080p / 23,976 fps / 16:9 / High Profile 4.1
  40. Language                                 : English
  41. Default                                  : Yes
  42. Forced                                   : No
  43. Color range                              : Limited
  44. Color primaries                          : BT.709
  45. Transfer characteristics                 : BT.709
  46. Matrix coefficients                      : BT.709
  47.  
  48. Audio #1
  49. ID                                       : 2
  50. Format                                   : DTS XLL
  51. Format/Info                              : Digital Theater Systems
  52. Commercial name                          : DTS-HD Master Audio
  53. Codec ID                                 : A_DTS
  54. Duration                                 : 1 h 28 min
  55. Bit rate mode                            : Variable
  56. Bit rate                                 : 3 438 kb/s
  57. Channel(s)                               : 6 channels
  58. Channel layout                           : C L R Ls Rs LFE
  59. Sampling rate                            : 48.0 kHz
  60. Frame rate                               : 93.750 FPS (512 SPF)
  61. Bit depth                                : 24 bits
  62. Compression mode                         : Lossless
  63. Stream size                              : 2.11 GiB (11%)
  64. Title                                    : DTS-HD Master Audio / 5.1 / 48 kHz / 3437 kbps / 24-bit
  65. Language                                 : English
  66. Default                                  : Yes
  67. Forced                                   : No
  68.  
  69. Audio #2
  70. ID                                       : 3
  71. Format                                   : AC-3
  72. Format/Info                              : Audio Coding 3
  73. Commercial name                          : Dolby Digital
  74. Codec ID                                 : A_AC3
  75. Duration                                 : 1 h 28 min
  76. Bit rate mode                            : Constant
  77. Bit rate                                 : 224 kb/s
  78. Channel(s)                               : 2 channels
  79. Channel layout                           : L R
  80. Sampling rate                            : 48.0 kHz
  81. Frame rate                               : 31.250 FPS (1536 SPF)
  82. Bit depth                                : 16 bits
  83. Compression mode                         : Lossy
  84. Stream size                              : 141 MiB (1%)
  85. Title                                    : Commentary by director Dick Richards
  86. Language                                 : English
  87. Service kind                             : Complete Main
  88. Default                                  : No
  89. Forced                                   : No
  90.  
  91. Text
  92. ID                                       : 4
  93. Format                                   : PGS
  94. Codec ID                                 : S_HDMV/PGS
  95. Codec ID/Info                            : Picture based subtitle format used on BDs/HD-DVDs
  96. Duration                                 : 1 h 21 min
  97. Bit rate                                 : 26.3 kb/s
  98. Count of elements                        : 1163
  99. Stream size                              : 15.4 MiB (0%)
  100. Title                                    : SDH
  101. Language                                 : English
  102. Default                                  : No
  103. Forced                                   : No
  104.  
  105. Menu
  106. 00:00:00.000                             : en:Chapter 1
  107. 00:10:00.600                             : en:Chapter 2
  108. 00:20:01.200                             : en:Chapter 3
  109. 00:30:01.800                             : en:Chapter 4
  110. 00:40:02.400                             : en:Chapter 5
  111. 00:50:03.000                             : en:Chapter 6
  112. 01:00:03.600                             : en:Chapter 7
  113. 01:10:04.200                             : en:Chapter 8
  114. 01:20:04.800                             : en:Chapter 9
RAW Paste Data
We use cookies for various purposes including analytics. By continuing to use Pastebin, you agree to our use of cookies as described in the Cookies Policy. OK, I Understand
 
Top