SHARE
TWEET

[Silux] Kubikiri Cycle - Aoiro Savant to Zaregototsukai - 01 (Zaregoto) (BD 1920x1080 x264 AACx2).mkv

HYBRID_BEING Nov 14th, 2016 100 Never
Not a member of Pastebin yet? Sign Up, it unlocks many cool features!
  1. General
  2. Unique ID                                : 196271289494447669096914343813822902961 (0x93A879B1977DD930A8050E0C4E1D72B1)
  3. Complete name                            : [Silux] Kubikiri Cycle - Aoiro Savant to Zaregototsukai - 01 (Zaregoto) (BD 1920x1080 x264 AACx2).mkv
  4. Format                                   : Matroska
  5. Format version                           : Version 4 / Version 2
  6. File size                                : 628 MiB
  7. Duration                                 : 27mn 14s
  8. Overall bit rate                         : 3 221 Kbps
  9. Encoded date                             : UTC 2016-11-05 12:13:15
  10. Writing application                      : mkvmerge v9.5.0 ('Quiet Fire') 32bit
  11. Writing library                          : libebml v1.3.4 + libmatroska v1.4.5
  12.  
  13. Video
  14. ID                                       : 1
  15. Format                                   : AVC
  16. Format/Info                              : Advanced Video Codec
  17. Format profile                           : Main@L4
  18. Format settings, CABAC                   : Yes
  19. Format settings, ReFrames                : 4 frames
  20. Codec ID                                 : V_MPEG4/ISO/AVC
  21. Duration                                 : 27mn 14s
  22. Bit rate                                 : 2 771 Kbps
  23. Width                                    : 1 920 pixels
  24. Height                                   : 1 080 pixels
  25. Display aspect ratio                     : 16:9
  26. Frame rate mode                          : Constant
  27. Frame rate                               : 23.976 (24000/1001) fps
  28. Color space                              : YUV
  29. Chroma subsampling                       : 4:2:0
  30. Bit depth                                : 8 bits
  31. Scan type                                : Progressive
  32. Bits/(Pixel*Frame)                       : 0.056
  33. Stream size                              : 540 MiB (86%)
  34. Writing library                          : x264 core 142 r2479 dd79a61
  35. Encoding settings                        : cabac=1 / ref=1 / deblock=1:0:0 / analyse=0x1:0x111 / me=hex / subme=2 / psy=1 / psy_rd=1.00:0.00 / mixed_ref=0 / me_range=16 / chroma_me=1 / trellis=0 / 8x8dct=0 / cqm=0 / deadzone=21,11 / fast_pskip=1 / chroma_qp_offset=0 / threads=6 / lookahead_threads=2 / sliced_threads=0 / nr=0 / decimate=1 / interlaced=0 / bluray_compat=0 / constrained_intra=0 / bframes=3 / b_pyramid=2 / b_adapt=1 / b_bias=0 / direct=1 / weightb=1 / open_gop=0 / weightp=1 / keyint=240 / keyint_min=24 / scenecut=40 / intra_refresh=0 / rc_lookahead=10 / rc=crf / mbtree=1 / crf=20.0 / qcomp=0.60 / qpmin=0 / qpmax=69 / qpstep=4 / vbv_maxrate=20000 / vbv_bufsize=25000 / crf_max=0.0 / nal_hrd=none / filler=0 / ip_ratio=1.40 / aq=1:1.00
  36. Default                                  : Yes
  37. Forced                                   : No
  38. Color range                              : Limited
  39. Color primaries                          : BT.709
  40. Transfer characteristics                 : BT.709
  41. Matrix coefficients                      : BT.709
  42.  
  43. Audio #1
  44. ID                                       : 2
  45. Format                                   : AC-3
  46. Format/Info                              : Audio Coding 3
  47. Mode extension                           : CM (complete main)
  48. Format settings, Endianness              : Big
  49. Codec ID                                 : A_AC3
  50. Duration                                 : 27mn 14s
  51. Bit rate mode                            : Constant
  52. Bit rate                                 : 224 Kbps
  53. Channel(s)                               : 2 channels
  54. Channel positions                        : Front: L R
  55. Sampling rate                            : 48.0 KHz
  56. Frame rate                               : 31.250 fps (1536 spf)
  57. Compression mode                         : Lossy
  58. Stream size                              : 43.7 MiB (7%)
  59. Language                                 : Japanese
  60. Default                                  : Yes
  61. Forced                                   : No
  62.  
  63. Audio #2
  64. ID                                       : 3
  65. Format                                   : AC-3
  66. Format/Info                              : Audio Coding 3
  67. Mode extension                           : CM (complete main)
  68. Format settings, Endianness              : Big
  69. Codec ID                                 : A_AC3
  70. Duration                                 : 27mn 14s
  71. Bit rate mode                            : Constant
  72. Bit rate                                 : 224 Kbps
  73. Channel(s)                               : 2 channels
  74. Channel positions                        : Front: L R
  75. Sampling rate                            : 48.0 KHz
  76. Frame rate                               : 31.250 fps (1536 spf)
  77. Compression mode                         : Lossy
  78. Stream size                              : 43.7 MiB (7%)
  79. Language                                 : Japanese
  80. Default                                  : No
  81. Forced                                   : No
  82.  
  83. Text
  84. ID                                       : 4
  85. Format                                   : ASS
  86. Codec ID                                 : S_TEXT/ASS
  87. Codec ID/Info                            : Advanced Sub Station Alpha
  88. Duration                                 : 25mn 2s
  89. Bit rate                                 : 154 bps
  90. Count of elements                        : 506
  91. Compression mode                         : Lossless
  92. Stream size                              : 28.3 KiB (0%)
  93. Title                                    : [English]
  94. Language                                 : English
  95. Default                                  : Yes
  96. Forced                                   : No
  97.  
  98. Menu
  99. 00:00:00.000                             : en:Chapter 1
  100. 00:02:57.803                             : en:Chapter 2
  101. 00:05:35.752                             : en:Chapter 3
  102. 00:08:28.633                             : en:Chapter 4
  103. 00:12:17.111                             : en:Chapter 5
  104. 00:19:24.246                             : en:Chapter 6
  105. 00:21:37.755                             : en:Chapter 7
  106. 00:25:39.121                             : en:Chapter 8
RAW Paste Data
We use cookies for various purposes including analytics. By continuing to use Pastebin, you agree to our use of cookies as described in the Cookies Policy. OK, I Understand
Top