Need a unique gift idea?
A Pastebin account makes a great Christmas gift
SHARE
TWEET

4K LG UHDTV Garden Demo MediaInfo

a guest May 19th, 2014 610 Never
Upgrade to PRO!
ENDING IN00days00hours00mins00secs
 
  1. General
  2. Complete name                  : 4K LG UHDTV Garden Demo.mp4
  3. Format                         : MPEG-4
  4. Format profile                 : Base Media / Version 2
  5. Codec ID                       : mp42
  6. File size                      : 2.69 GiB
  7. Duration                       : 3mn 4s
  8. Overall bit rate mode          : Variable
  9. Overall bit rate               : 125 Mbps
  10. Encoded date                   : UTC 2012-12-31 19:20:50
  11. Tagged date                    : UTC 2012-12-31 19:20:50
  12.  
  13. Video
  14. ID                             : 2
  15. Format                         : AVC
  16. Format/Info                    : Advanced Video Codec
  17. Format profile                 : High@L5.1
  18. Format settings, CABAC         : Yes
  19. Format settings, ReFrames      : 5 frames
  20. Codec ID                       : avc1
  21. Codec ID/Info                  : Advanced Video Coding
  22. Duration                       : 3mn 4s
  23. Bit rate mode                  : Constant
  24. Bit rate                       : 125 Mbps
  25. Width                          : 3 840 pixels
  26. Height                         : 2 160 pixels
  27. Display aspect ratio           : 16:9
  28. Frame rate mode                : Constant
  29. Frame rate                     : 23.976 fps
  30. Standard                       : NTSC
  31. Color space                    : YUV
  32. Chroma subsampling             : 4:2:0
  33. Bit depth                      : 8 bits
  34. Scan type                      : Progressive
  35. Bits/(Pixel*Frame)             : 0.629
  36. Stream size                    : 2.69 GiB (100%)
  37. Language                       : English
  38. Encoded date                   : UTC 2012-12-31 19:20:52
  39. Tagged date                    : UTC 2012-12-31 19:20:52
  40. Color primaries                : BT.709
  41. Transfer characteristics       : BT.709
  42. Matrix coefficients            : BT.709
  43.  
  44. Audio
  45. ID                             : 1
  46. Format                         : AAC
  47. Format/Info                    : Advanced Audio Codec
  48. Format profile                 : LC
  49. Codec ID                       : 40
  50. Duration                       : 3mn 4s
  51. Bit rate mode                  : Variable
  52. Bit rate                       : 157 Kbps
  53. Maximum bit rate               : 293 Kbps
  54. Channel(s)                     : 2 channels
  55. Channel positions              : Front: L R
  56. Sampling rate                  : 44.1 KHz
  57. Compression mode               : Lossy
  58. Stream size                    : 3.45 MiB (0%)
  59. Language                       : English
  60. Encoded date                   : UTC 2012-12-31 19:20:51
  61. Tagged date                    : UTC 2012-12-31 19:20:51
RAW Paste Data
We use cookies for various purposes including analytics. By continuing to use Pastebin, you agree to our use of cookies as described in the Cookies Policy. OK, I Understand
 
Top