GrabHD

Untitled

Mar 15th, 2020
84
Never
Not a member of Pastebin yet? Sign Up, it unlocks many cool features!
  1. Общее
  2. Уникальный идентификатор : 193627155320464449575405584792462311063 (0x91AB3BD057F203D889E9BF0149403E97)
  3. Полное имя : G:Torrent2FestivalBDRip720p.mkv
  4. Формат : Matroska
  5. Версия формата : Version 4 / Version 2
  6. Размер файла : 4,33 Гбайт
  7. Продолжительность : 1 ч. 37 м.
  8. Общий поток : 6324 Кбит/сек
  9. Дата кодирования : UTC 2020-03-14 23:26:20
  10. Программа кодирования : mkvmerge v9.5.0 ('Quiet Fire') 64bit
  11. Библиотека кодирования : libebml v1.3.4 + libmatroska v1.4.5
  12.  
  13. Видео
  14. Идентификатор : 1
  15. Формат : AVC
  16. Формат/Информация : Advanced Video Codec
  17. Профиль формата : High@L4.1
  18. Настройки формата : CABAC / 12 Ref Frames
  19. Параметр CABAC формата : Да
  20. Параметр RefFrames формата : 12 кадров
  21. Идентификатор кодека : V_MPEG4/ISO/AVC
  22. Продолжительность : 1 ч. 37 м.
  23. Битрейт : 5714 Кбит/сек
  24. Ширина : 1280 пикселей
  25. Высота : 536 пикселей
  26. Соотношение сторон : 2,40:1
  27. Режим частоты кадров : Постоянный
  28. Частота кадров : 23,976 (23976/1000) кадра/сек
  29. Цветовое пространство : YUV
  30. Субдискретизация насыщенности : 4:2:0
  31. Битовая глубина : 8 бит
  32. Тип развёртки : Прогрессивная
  33. Бит/(Пиксели*Кадры) : 0.347
  34. Размер потока : 3,89 Гбайт (90%)
  35. Заголовок : Sisendrovich(R)
  36. Библиотека кодирования : x264 core 159 r2991 1771b55
  37. Настройки программы : cabac=1 / ref=12 / deblock=1:-1:-1 / analyse=0x3:0x133 / me=tesa / subme=11 / psy=1 / psy_rd=1.00:0.00 / mixed_ref=1 / me_range=32 / chroma_me=1 / trellis=2 / 8x8dct=1 / cqm=0 / deadzone=21,11 / fast_pskip=0 / chroma_qp_offset=-2 / threads=17 / lookahead_threads=2 / sliced_threads=0 / nr=0 / decimate=0 / interlaced=0 / bluray_compat=0 / constrained_intra=0 / bframes=8 / b_pyramid=2 / b_adapt=2 / b_bias=0 / direct=3 / weightb=1 / open_gop=0 / weightp=2 / keyint=240 / keyint_min=23 / scenecut=40 / intra_refresh=0 / rc_lookahead=60 / rc=2pass / mbtree=0 / bitrate=5714 / ratetol=1.0 / qcomp=0.70 / qpmin=0 / qpmax=69 / qpstep=4 / cplxblur=20.0 / qblur=0.5 / vbv_maxrate=50000 / vbv_bufsize=62500 / nal_hrd=none / filler=0 / ip_ratio=1.40 / pb_ratio=1.30 / aq=3:0.90
  38. Язык : English
  39. Default : Да
  40. Forced : Нет
  41.  
  42. Аудио #1
  43. Идентификатор : 2
  44. Формат : AC-3
  45. Формат/Информация : Audio Coding 3
  46. Параметр Endianness формата : Big
  47. Идентификатор кодека : A_AC3
  48. Продолжительность : 1 ч. 37 м.
  49. Вид битрейта : Постоянный
  50. Битрейт : 192 Кбит/сек
  51. Каналы : 2 канала
  52. Расположение каналов : Front: L R
  53. Частота : 48,0 КГц
  54. Частота кадров : 31,250 кадров/сек (1536 SPF)
  55. Битовая глубина : 16 бит
  56. Метод сжатия : С потерями
  57. Размер потока : 134 Мбайт (3%)
  58. Заголовок : rus
  59. Язык : Russian
  60. Default : Да
  61. Forced : Нет
  62.  
  63. Аудио #2
  64. Идентификатор : 3
  65. Формат : AC-3
  66. Формат/Информация : Audio Coding 3
  67. Параметр Endianness формата : Big
  68. Идентификатор кодека : A_AC3
  69. Продолжительность : 1 ч. 37 м.
  70. Вид битрейта : Постоянный
  71. Битрейт : 448 Кбит/сек
  72. Каналы : 6 каналов
  73. Расположение каналов : Front: L C R, Side: L R, LFE
  74. Частота : 48,0 КГц
  75. Частота кадров : 31,250 кадров/сек (1536 SPF)
  76. Битовая глубина : 16 бит
  77. Метод сжатия : С потерями
  78. Размер потока : 314 Мбайт (7%)
  79. Заголовок : eng
  80. Язык : English
  81. Default : Нет
  82. Forced : Нет
  83.  
  84. Текст
  85. Идентификатор : 4
  86. Формат : UTF-8
  87. Идентификатор кодека : S_TEXT/UTF8
  88. Идентификатор кодека/Информация : UTF-8 Plain Text
  89. Продолжительность : 1 ч. 37 м.
  90. Битрейт : 103 бит/сек
  91. ElementCount : 2112
  92. Размер потока : 74,0 Кбайт (0%)
  93. Заголовок : engSDH
  94. Язык : English
  95. Default : Нет
  96. Forced : Нет
  97.  
  98. Меню
  99. 00:00:00.000 : en:Chapter 1
  100. 00:10:09.275 : en:Chapter 2
  101. 00:19:11.150 : en:Chapter 3
  102. 00:30:41.798 : en:Chapter 4
  103. 00:40:45.943 : en:Chapter 5
  104. 00:54:47.367 : en:Chapter 6
  105. 01:07:06.063 : en:Chapter 7
  106. 01:17:32.606 : en:Chapter 8
  107. 01:34:16.942 : en:Chapter 9
RAW Paste Data