Guest User

Fate stay night [Unlimited Blade Works] E01

a guest
Nov 5th, 2017
243
Never
Not a member of Pastebin yet? Sign Up, it unlocks many cool features!
  1. General
  2. Unique ID : 219243740105739527520853731679804109191 (0xA4F0CEF48AAA6C43B43148F3BDB8B187)
  3. Complete name : [bonkai77].Fate.stay.night.[Unlimited.Blade.Works].Episode.01.[BD.1080p.Dual.Audio.x265.HEVC.10bit].mkv
  4. Format : Matroska
  5. Format version : Version 4 / Version 2
  6. File size : 517 MiB
  7. Duration : 47 min 41 s
  8. Overall bit rate : 1 515 kb/s
  9. Movie name : [bonkai77].Fate.stay.night.[Unlimited.Blade.Works].Episode.01.Winter.Days,.a.Fateful.Night.[BD.1080p.Dual.Audio.x265.10bit]
  10. Encoded date : UTC 2017-10-25 17:26:28
  11. Writing application : mkvmerge v17.0.0 ('Be Ur Friend') 64-bit
  12. Writing library : libebml v1.3.5 + libmatroska v1.4.8
  13. Attachments : FOT-ChiaroStd-B-EN.otf / FOT-MatissePro-B-Toaru.ttf / FOT-MatissePro-EB-Toaru.ttf / IwaNGNewsPro-Db-CP.ttf / IwaNGoPro-Bd-CP.ttf / IwaNGoPro-Md-AW.ttf / Profile-Medium.otf / Profile-MediumItalic.otf / ThrowMyHandsUpInTheAir-CP.ttf
  14. Writing frontend : StaxRip v1.6.1.2
  15.  
  16. Video
  17. ID : 1
  18. Format : HEVC
  19. Format/Info : High Efficiency Video Coding
  20. Format profile : Main 10@L4@Main
  21. Codec ID : V_MPEGH/ISO/HEVC
  22. Duration : 47 min 41 s
  23. Bit rate : 1 208 kb/s
  24. Width : 1 920 pixels
  25. Height : 1 080 pixels
  26. Display aspect ratio : 16:9
  27. Frame rate mode : Constant
  28. Frame rate : 23.976 (24000/1001) FPS
  29. Color space : YUV
  30. Chroma subsampling : 4:2:0
  31. Bit depth : 10 bits
  32. Bits/(Pixel*Frame) : 0.024
  33. Stream size : 412 MiB (80%)
  34. Title : [bonkai77]
  35. Writing library : x265 2.5+27-0e168bdeb48b:[Windows][GCC 6.2.1][64 bit] 10bit
  36. Encoding settings : cpuid=1173503 / frame-threads=2 / numa-pools=4 / wpp / no-pmode / no-pme / no-psnr / no-ssim / log-level=2 / input-csp=1 / input-res=1920x1080 / interlace=0 / total-frames=68618 / level-idc=0 / high-tier=1 / uhd-bd=0 / ref=4 / no-allow-non-conformance / no-repeat-headers / annexb / no-aud / no-hrd / info / hash=0 / no-temporal-layers / open-gop / min-keyint=23 / keyint=250 / bframes=8 / b-adapt=2 / b-pyramid / bframe-bias=0 / rc-lookahead=30 / lookahead-slices=4 / scenecut=40 / no-intra-refresh / ctu=32 / min-cu-size=8 / rect / no-amp / max-tu-size=16 / tu-inter-depth=2 / tu-intra-depth=2 / limit-tu=4 / rdoq-level=2 / dynamic-rd=0.00 / no-ssim-rd / signhide / no-tskip / nr-intra=0 / nr-inter=0 / no-constrained-intra / no-strong-intra-smoothing / max-merge=3 / limit-refs=2 / limit-modes / me=3 / subme=3 / merange=57 / temporal-mvp / weightp / weightb / no-analyze-src-pics / deblock=0:0 / no-sao / no-sao-non-deblock / rd=6 / no-early-skip / rskip / no-fast-intra / no-tskip-fast / no-cu-lossless / b-intra / no-splitrd-skip / rdpenalty=0 / psy-rd=2.00 / psy-rdoq=1.00 / no-rd-refine / analysis-reuse-mode=0 / no-lossless / cbqpoffs=0 / crqpoffs=0 / rc=crf / crf=22.0 / qcomp=0.60 / qpstep=4 / stats-write=0 / stats-read=0 / ipratio=1.40 / pbratio=1.30 / aq-mode=3 / aq-strength=1.00 / cutree / zone-count=0 / no-strict-cbr / qg-size=32 / no-rc-grain / qpmax=69 / qpmin=0 / no-const-vbv / sar=0 / overscan=0 / videoformat=5 / range=0 / colorprim=2 / transfer=2 / colormatrix=2 / chromaloc=0 / display-window=0 / max-cll=0,0 / min-luma=0 / max-luma=1023 / log2-max-poc-lsb=8 / vui-timing-info / vui-hrd-info / slices=1 / opt-qp-pps / opt-ref-list-length-pps / no-multi-pass-opt-rps / scenecut-bias=0.05 / no-opt-cu-delta-qp / no-aq-motion / no-hdr / no-hdr-opt / no-dhdr10-opt / analysis-reuse-level=5 / scale-factor=0 / refine-intra=0 / refine-inter=0 / refine-mv=0 / no-limit-sao / ctu-info=0
  37. Default : Yes
  38. Forced : No
  39.  
  40. Audio #1
  41. ID : 2
  42. Format : AAC
  43. Format/Info : Advanced Audio Codec
  44. Format profile : HE-AAC / LC
  45. Format settings : Explicit
  46. Codec ID : A_AAC-2
  47. Duration : 47 min 39 s
  48. Bit rate : 82.3 kb/s
  49. Channel(s) : 2 channels
  50. Channel positions : Front: L R
  51. Sampling rate : 48.0 kHz / 24.0 kHz
  52. Frame rate : 23.438 FPS (1024 SPF)
  53. Compression mode : Lossy
  54. Delay relative to video : 1 s 40 ms
  55. Stream size : 28.1 MiB (5%)
  56. Language : English
  57. Default : Yes
  58. Forced : No
  59.  
  60. Audio #2
  61. ID : 3
  62. Format : AAC
  63. Format/Info : Advanced Audio Codec
  64. Format profile : LC
  65. Codec ID : A_AAC-2
  66. Duration : 47 min 41 s
  67. Bit rate : 111 kb/s
  68. Channel(s) : 2 channels
  69. Channel positions : Front: L R
  70. Sampling rate : 48.0 kHz
  71. Frame rate : 46.875 FPS (1024 SPF)
  72. Compression mode : Lossy
  73. Delay relative to video : 21 ms
  74. Stream size : 37.7 MiB (7%)
  75. Language : Japanese
  76. Default : No
  77. Forced : No
  78.  
  79. Text #1
  80. ID : 4
  81. Format : ASS
  82. Codec ID : S_TEXT/ASS
  83. Codec ID/Info : Advanced Sub Station Alpha
  84. Duration : 44 min 56 s
  85. Bit rate : 350 b/s
  86. Count of elements : 846
  87. Compression mode : Lossless
  88. Stream size : 115 KiB (0%)
  89. Title : Signs & Songs (UTW)
  90. Language : English
  91. Default : Yes
  92. Forced : No
  93.  
  94. Text #2
  95. ID : 5
  96. Format : ASS
  97. Codec ID : S_TEXT/ASS
  98. Codec ID/Info : Advanced Sub Station Alpha
  99. Duration : 46 min 5 s
  100. Bit rate : 438 b/s
  101. Count of elements : 1391
  102. Compression mode : Lossless
  103. Stream size : 148 KiB (0%)
  104. Title : English Sub [UTW]
  105. Language : English
  106. Default : No
  107. Forced : No
  108.  
  109. Text #3
  110. ID : 6
  111. Format : PGS
  112. Muxing mode : zlib
  113. Codec ID : S_HDMV/PGS
  114. Codec ID/Info : Picture based subtitle format used on BDs/HD-DVDs
  115. Duration : 46 min 5 s
  116. Bit rate : 237 kb/s
  117. Count of elements : 3695
  118. Stream size : 78.0 MiB (15%)
  119. Title : English Subs (Retail)
  120. Language : English
  121. Default : No
  122. Forced : No
  123.  
  124. Menu
  125. 00:00:00.000 : en:Part 01
  126. 00:02:43.038 : en:Opening
  127. 00:04:13.002 : en:Part 02
  128. 00:07:39.959 : en:Part 03
  129. 00:11:49.083 : en:Part 04
  130. 00:13:50.997 : en:Part 05
  131. 00:16:37.746 : en:Part 06
  132. 00:19:44.808 : en:Part 07
  133. 00:26:40.974 : en:Part 08
  134. 00:29:16.546 : en:Part 09
  135. 00:32:21.314 : en:Part 10
  136. 00:35:41.973 : en:Part 11
  137. 00:38:18.463 : en:Part 12
  138. 00:40:14.829 : en:Part 13
  139. 00:45:54.960 : en:Ending
  140. 00:47:24.925 : en:Preview
RAW Paste Data