Henry_Kr

T&B-S01

Feb 28th, 2021
65
Never
Not a member of Pastebin yet? Sign Up, it unlocks many cool features!
  1. Video
  2. ID : 1
  3. Format : AVC
  4. Format/Info : Advanced Video Codec
  5. Format profile : Main@L4
  6. Format settings : CABAC / 3 Ref Frames
  7. Format settings, CABAC : Yes
  8. Format settings, Reference : 3 frames
  9. Muxing mode : Header stripping
  10. Codec ID : V_MPEG4/ISO/AVC
  11. Duration : 24 min 1 s
  12. Bit rate mode : Variable
  13. Bit rate : 6 190 kb/s
  14. Maximum bit rate : 9 285 kb/s
  15. Width : 1 920 pixels
  16. Height : 1 080 pixels
  17. Display aspect ratio : 16:9
  18. Frame rate mode : Constant
  19. Frame rate : 23.976 (24000/1001) FPS
  20. Color space : YUV
  21. Chroma subsampling : 4:2:0
  22. Bit depth : 8 bits
  23. Scan type : Progressive
  24. Bits/(Pixel*Frame) : 0.125
  25. Stream size : 1 023 MiB (94%)
  26. Title : Tiger.Bunny.S01E01.Tudo.Fica.Bem.Quando.Acaba.Bem.1080p.NF.WEB.[CartoonNOW]
  27. Writing library : x264 core 148 r2722 1b0121b
  28. Language : Japanese
  29. Default : Yes
  30. Forced : No
  31.  
  32. Audio #1
  33. ID : 2
  34. Format : E-AC-3
  35. Format/Info : Enhanced AC-3
  36. Commercial name : Dolby Digital Plus
  37. Muxing mode : Header stripping
  38. Codec ID : A_EAC3
  39. Duration : 24 min 1 s
  40. Bit rate mode : Constant
  41. Bit rate : 128 kb/s
  42. Channel(s) : 2 channels
  43. Channel layout : L R
  44. Sampling rate : 48.0 kHz
  45. Frame rate : 31.250 FPS (1536 SPF)
  46. Compression mode : Lossy
  47. Stream size : 22.0 MiB (2%)
  48. Title : E-AC3 2.0
  49. Language : Portuguese
  50. Service kind : Complete Main
  51. Default : Yes
  52. Forced : No
  53.  
  54. Audio #2
  55. ID : 3
  56. Format : E-AC-3
  57. Format/Info : Enhanced AC-3
  58. Commercial name : Dolby Digital Plus
  59. Muxing mode : Header stripping
  60. Codec ID : A_EAC3
  61. Duration : 24 min 1 s
  62. Bit rate mode : Constant
  63. Bit rate : 128 kb/s
  64. Channel(s) : 2 channels
  65. Channel layout : L R
  66. Sampling rate : 48.0 kHz
  67. Frame rate : 31.250 FPS (1536 SPF)
  68. Compression mode : Lossy
  69. Stream size : 22.0 MiB (2%)
  70. Title : E-AC3 2.0
  71. Language : Japanese
  72. Service kind : Complete Main
  73. Default : No
  74. Forced : No
  75.  
  76. Text
  77. ID : 4
  78. Format : UTF-8
  79. Codec ID : S_TEXT/UTF8
  80. Codec ID/Info : UTF-8 Plain Text
  81. Title : Completa
  82. Language : Portuguese
  83. Default : No
  84. Forced : No
RAW Paste Data

Adblocker detected! Please consider disabling it...

We've detected AdBlock Plus or some other adblocking software preventing Pastebin.com from fully loading.

We don't have any obnoxious sound, or popup ads, we actively block these annoying types of ads!

Please add Pastebin.com to your ad blocker whitelist or disable your adblocking software.

×