SHARE
TWEET

Untitled

sakuya-inu-izayoi Oct 4th, 2015 184 Never
Not a member of Pastebin yet? Sign Up, it unlocks many cool features!
  1. REM GENRE Game
  2. REM DATE 2014
  3. REM DISCID 7E0AD50A
  4. REM COMMENT "ExactAudioCopy v0.99pb5"
  5. PERFORMER "Alstroemeria Records"
  6. TITLE "FLASHLIGHT"
  7. FILE "FLASHLIGHT.tta" WAVE
  8.   TRACK 01 AUDIO
  9.     TITLE "FLASHLIGHT"
  10.     PERFORMER "Masayoshi Minoshima"
  11.     INDEX 01 00:00:00
  12.   TRACK 02 AUDIO
  13.     TITLE "PUNISHMENT"
  14.     PERFORMER "nachi"
  15.     INDEX 01 00:45:35
  16.   TRACK 03 AUDIO
  17.     TITLE "WITCHCRAFT"
  18.     PERFORMER "Mei Ayakura"
  19.     INDEX 01 05:22:37
  20.   TRACK 04 AUDIO
  21.     TITLE "potential curve"
  22.     PERFORMER "Camellia"
  23.     INDEX 01 11:17:60
  24.   TRACK 05 AUDIO
  25.     TITLE "Hell’s Sun"
  26.     PERFORMER "Nhato"
  27.     INDEX 01 15:58:26
  28.   TRACK 06 AUDIO
  29.     TITLE "EDGE"
  30.     PERFORMER "mican*"
  31.     INDEX 01 20:34:15
  32.   TRACK 07 AUDIO
  33.     TITLE "BLACK EYES"
  34.     PERFORMER "Sae Tsukiyama"
  35.     INDEX 01 25:25:04
  36.   TRACK 08 AUDIO
  37.     TITLE "DREAMS OF LOST"
  38.     PERFORMER "ayame"
  39.     INDEX 01 30:22:00
  40.   TRACK 09 AUDIO
  41.     TITLE "Bad Apple!! feat.nomico(2014 Refix)"
  42.     PERFORMER "nomico"
  43.     INDEX 01 35:28:42
  44.   TRACK 10 AUDIO
  45.     TITLE "End Of Daylight(REDALiCE Remix)"
  46.     PERFORMER "nachi"
  47.     INDEX 01 40:47:58
RAW Paste Data
We use cookies for various purposes including analytics. By continuing to use Pastebin, you agree to our use of cookies as described in the Cookies Policy. OK, I Understand
Top