SHARE
TWEET

[Commie] Teekyuu - 100 [349BFA01].mkv

a guest Aug 10th, 2017 152 Never
Not a member of Pastebin yet? Sign Up, it unlocks many cool features!
  1. General
  2. Unique ID                                : 251101689631540371393459386166789332090 (0xBCE86D22F6D5CD6FAAE5EF4E3498DC7A)
  3. Format                                   : Matroska
  4. Format version                           : Version 4 / Version 2
  5. File size                                : 46.0 MiB
  6. Duration                                 : 2 min 30 s
  7. Overall bit rate                         : 2 571 kb/s
  8. Encoded date                             : UTC 2017-08-02 23:14:09
  9. Writing application                      : mkvmerge v14.0.0 ('Flow') 64bit
  10. Writing library                          : libebml v1.3.4 + libmatroska v1.4.5
  11. Attachments                              : BPreplayBold.otf / Chalky Chicken.ttf / EmilysHand Regular.ttf / LT_C.ttf / LTFinnegan_MediumItalic_0.ttf / pastel crayon.ttf / VAG%20Rounded%20BT_5.ttf
  12.  
  13. Video
  14. ID                                       : 1
  15. Format                                   : AVC
  16. Format/Info                              : Advanced Video Codec
  17. Format profile                           : High 10@L5
  18. Format settings, CABAC                   : Yes
  19. Format settings, ReFrames                : 16 frames
  20. Codec ID                                 : V_MPEG4/ISO/AVC
  21. Duration                                 : 2 min 30 s
  22. Bit rate                                 : 2 399 kb/s
  23. Width                                    : 1 280 pixels
  24. Height                                   : 720 pixels
  25. Display aspect ratio                     : 16:9
  26. Frame rate mode                          : Constant
  27. Frame rate                               : 23.976 (24000/1001) FPS
  28. Color space                              : YUV
  29. Chroma subsampling                       : 4:2:0
  30. Bit depth                                : 10 bits
  31. Scan type                                : Progressive
  32. Bits/(Pixel*Frame)                       : 0.109
  33. Stream size                              : 42.9 MiB (93%)
  34. Writing library                          : x264 core 152 r2851+58 429492e t_mod_Custom [10-bit@all X86_64]
  35. Encoding settings                        : cabac=1 / ref=16 / deblock=1:0:0 / analyse=0x3:0x133 / me=umh / subme=10 / psy=1 / fade_compensate=0.70 / psy_rd=0.60:0.15 / mixed_ref=1 / me_range=24 / chroma_me=1 / trellis=2 / 8x8dct=1 / cqm=0 / deadzone=21,11 / fast_pskip=1 / chroma_qp_offset=-3 / threads=12 / lookahead_threads=3 / sliced_threads=0 / nr=0 / decimate=1 / interlaced=0 / bluray_compat=0 / constrained_intra=0 / fgo=0 / bframes=10 / b_pyramid=2 / b_adapt=2 / b_bias=0 / direct=3 / weightb=1 / open_gop=0 / weightp=2 / keyint=250 / keyint_min=23 / scenecut=40 / intra_refresh=0 / rc_lookahead=60 / rc=crf / mbtree=1 / crf=18.0000 / qcomp=0.70 / qpmin=0:0:0 / qpmax=81:81:81 / qpstep=4 / ip_ratio=1.40 / aq=3:0.80 / aq-sensitivity=10.00 / aq-factor=1.00:1.00:1.00 / aq2=0 / aq3=0
  36. Language                                 : English
  37. Default                                  : Yes
  38. Forced                                   : No
  39.  
  40. Audio
  41. ID                                       : 2
  42. Format                                   : AAC
  43. Format/Info                              : Advanced Audio Codec
  44. Format profile                           : LC
  45. Codec ID                                 : A_AAC
  46. Duration                                 : 2 min 30 s
  47. Bit rate                                 : 128 kb/s
  48. Channel(s)                               : 2 channels
  49. Channel positions                        : Front: L R
  50. Sampling rate                            : 44.1 kHz
  51. Frame rate                               : 43.066 FPS (1024 spf)
  52. Compression mode                         : Lossy
  53. Stream size                              : 2.29 MiB (5%)
  54. Language                                 : Japanese
  55. Default                                  : Yes
  56. Forced                                   : No
  57.  
  58. Text
  59. ID                                       : 3
  60. Format                                   : ASS
  61. Codec ID                                 : S_TEXT/ASS
  62. Codec ID/Info                            : Advanced Sub Station Alpha
  63. Duration                                 : 2 min 29 s
  64. Bit rate                                 : 9 356 b/s
  65. Count of elements                        : 1496
  66. Compression mode                         : Lossless
  67. Stream size                              : 171 KiB (0%)
  68. Language                                 : English
  69. Default                                  : Yes
  70. Forced                                   : No
  71.  
  72. Menu
  73. 00:00:00.033                             : en:Intro
  74. 00:00:09.940                             : en:OP
  75. 00:00:39.930                             : en:Episode
  76. 00:01:52.590                             : en:ED
  77. 00:02:22.620                             : en:Outro
  78. 00:02:28.160                             : en:Preview
RAW Paste Data
We use cookies for various purposes including analytics. By continuing to use Pastebin, you agree to our use of cookies as described in the Cookies Policy. OK, I Understand
Top