SHARE
TWEET

Interstellar Illuminated Star Projection Edition (disc 2)

a guest Nov 21st, 2016 187 Never
Not a member of Pastebin yet? Sign Up, it unlocks many cool features!
  1. TITLE "Interstellar: Original Motion Picture Soundtrack [Disc 2]"
  2. PERFORMER "Hans Zimmer"
  3. CATALOG 0794043181924
  4. REM GENRE "Soundtrack"
  5. REM DATE "2014"
  6. REM DISCNUMBER 2
  7. REM TOTALDISCS 2
  8. REM DISCID 7E0E1E0D
  9. REM REPLAYGAIN_ALBUM_GAIN -2.14 dB
  10. REM REPLAYGAIN_ALBUM_PEAK 0.949219
  11. REM COMPILATION TRUE
  12. FILE "01 First Step.flac" WAVE
  13.   TRACK 01 AUDIO
  14.     TITLE "First Step"
  15.     PERFORMER "Hans Zimmer"
  16.     SONGWRITER "Hans Zimmer"
  17.     ISRC USNLR1400789
  18.     REM REPLAYGAIN_TRACK_GAIN -3.33 dB
  19.     REM REPLAYGAIN_TRACK_PEAK 0.943848
  20.     INDEX 01 00:00:00
  21. FILE "02 Flying Drone.flac" WAVE
  22.   TRACK 02 AUDIO
  23.     TITLE "Flying Drone"
  24.     PERFORMER "Hans Zimmer"
  25.     SONGWRITER "Hans Zimmer"
  26.     ISRC USNLR1400790
  27.     REM REPLAYGAIN_TRACK_GAIN -1.31 dB
  28.     REM REPLAYGAIN_TRACK_PEAK 0.761322
  29.     INDEX 01 00:00:00
  30. FILE "03 Atmospheric Entry.flac" WAVE
  31.   TRACK 03 AUDIO
  32.     TITLE "Atmospheric Entry"
  33.     PERFORMER "Hans Zimmer"
  34.     SONGWRITER "Hans Zimmer"
  35.     ISRC USNLR1400791
  36.     REM REPLAYGAIN_TRACK_GAIN 14.28 dB
  37.     REM REPLAYGAIN_TRACK_PEAK 0.479889
  38.     INDEX 01 00:00:00
  39. FILE "04 No Need To Come Back.flac" WAVE
  40.   TRACK 04 AUDIO
  41.     TITLE "No Need To Come Back"
  42.     PERFORMER "Hans Zimmer"
  43.     SONGWRITER "Hans Zimmer"
  44.     ISRC USNLR1400792
  45.     REM REPLAYGAIN_TRACK_GAIN 5.22 dB
  46.     REM REPLAYGAIN_TRACK_PEAK 0.943848
  47.     INDEX 01 00:00:00
  48. FILE "05 Imperfect Lock.flac" WAVE
  49.   TRACK 05 AUDIO
  50.     TITLE "Imperfect Lock"
  51.     PERFORMER "Hans Zimmer"
  52.     SONGWRITER "Hans Zimmer"
  53.     ISRC USNLR1400793
  54.     REM REPLAYGAIN_TRACK_GAIN 1.61 dB
  55.     REM REPLAYGAIN_TRACK_PEAK 0.943848
  56.     INDEX 01 00:00:00
  57. FILE "06 What Happens Now?.flac" WAVE
  58.   TRACK 06 AUDIO
  59.     TITLE "What Happens Now?"
  60.     PERFORMER "Hans Zimmer"
  61.     SONGWRITER "Hans Zimmer"
  62.     ISRC USNLR1400794
  63.     REM REPLAYGAIN_TRACK_GAIN -1.56 dB
  64.     REM REPLAYGAIN_TRACK_PEAK 0.716888
  65.     INDEX 01 00:00:00
  66. FILE "07 Who's They?.flac" WAVE
  67.   TRACK 07 AUDIO
  68.     TITLE "Who's They?"
  69.     PERFORMER "Hans Zimmer"
  70.     SONGWRITER "Hans Zimmer"
  71.     ISRC USNLR1400795
  72.     REM REPLAYGAIN_TRACK_GAIN 1.45 dB
  73.     REM REPLAYGAIN_TRACK_PEAK 0.830902
  74.     INDEX 01 00:00:00
  75. FILE "08 Murph.flac" WAVE
  76.   TRACK 08 AUDIO
  77.     TITLE "Murph"
  78.     PERFORMER "Hans Zimmer"
  79.     SONGWRITER "Hans Zimmer"
  80.     ISRC USNLR1400796
  81.     REM REPLAYGAIN_TRACK_GAIN -5.05 dB
  82.     REM REPLAYGAIN_TRACK_PEAK 0.943848
  83.     INDEX 01 00:00:00
  84. FILE "09 Organ Variation.flac" WAVE
  85.   TRACK 09 AUDIO
  86.     TITLE "Organ Variation"
  87.     PERFORMER "Hans Zimmer"
  88.     SONGWRITER "Hans Zimmer"
  89.     ISRC USNLR1400797
  90.     REM REPLAYGAIN_TRACK_GAIN 4.67 dB
  91.     REM REPLAYGAIN_TRACK_PEAK 0.910736
  92.     INDEX 01 00:00:00
  93. FILE "10 Tick-Tock.flac" WAVE
  94.   TRACK 10 AUDIO
  95.     TITLE "Tick-Tock"
  96.     PERFORMER "Hans Zimmer"
  97.     SONGWRITER "Hans Zimmer"
  98.     ISRC USNLR1400798
  99.     REM REPLAYGAIN_TRACK_GAIN -4.62 dB
  100.     REM REPLAYGAIN_TRACK_PEAK 0.943848
  101.     INDEX 01 00:00:00
  102. FILE "11 Day One (Original Demo).flac" WAVE
  103.   TRACK 11 AUDIO
  104.     TITLE "Day One (Original Demo)"
  105.     PERFORMER "Hans Zimmer"
  106.     SONGWRITER "Hans Zimmer"
  107.     ISRC USNLR1400799
  108.     REM REPLAYGAIN_TRACK_GAIN 0.50 dB
  109.     REM REPLAYGAIN_TRACK_PEAK 0.915771
  110.     INDEX 01 00:00:00
  111. FILE "12 Do Not Go Gentle Into That Good Night.flac" WAVE
  112.   TRACK 12 AUDIO
  113.     TITLE "Do Not Go Gentle Into That Good Night"
  114.     PERFORMER "John Lithgow / Ellen Burstyn / Casey Affleck / Jessica Chastain / Matthew McConaughey / Mackenzie Foy"
  115.     SONGWRITER "Hans Zimmer"
  116.     ISRC USNLR1400800
  117.     REM REPLAYGAIN_TRACK_GAIN 10.34 dB
  118.     REM REPLAYGAIN_TRACK_PEAK 0.273712
  119.     INDEX 01 00:00:00
  120. FILE "13 No Time For Caution.flac" WAVE
  121.   TRACK 13 AUDIO
  122.     TITLE "No Time For Caution"
  123.     PERFORMER "Hans Zimmer"
  124.     SONGWRITER "Hans Zimmer"
  125.     ISRC USNLR1400860
  126.     REM REPLAYGAIN_TRACK_GAIN -1.66 dB
  127.     REM REPLAYGAIN_TRACK_PEAK 0.949219
  128.     INDEX 01 00:00:00
RAW Paste Data
We use cookies for various purposes including analytics. By continuing to use Pastebin, you agree to our use of cookies as described in the Cookies Policy. OK, I Understand
Not a member of Pastebin yet?
Sign Up, it unlocks many cool features!
 
Top