mft39anton

Untitled

Dec 9th, 2013
44
Never
Not a member of Pastebin yet? Sign Up, it unlocks many cool features!
  1. Disc Title: DISK_1
  2. Disc Size: 22 788 868 388 bytes
  3. Protection: AACS
  4. BD-Java: Yes
  5. BDInfo: 0.5.8
  6.  
  7. Notes:
  8.  
  9. BDINFO HOME:
  10. Cinema Squid
  11. http://www.cinemasquid.com/blu-ray/tools/bdinfo
  12.  
  13. INCLUDES FORUMS REPORT FOR:
  14. AVS Forum Blu-ray Audio and Video Specifications Thread
  15. http://www.avsforum.com/avs-vb/showthread.php?t=1155731
  16.  
  17.  
  18. ********************
  19. PLAYLIST: 01003.MPLS
  20. ********************
  21.  
  22. <--- BEGIN FORUMS PASTE --->
  23. [code]
  24. Total Video
  25. Title Codec Length Movie Size Disc Size Bitrate Bitrate Main Audio Track Secondary Audio Track
  26. ----- ------ ------- -------------- -------------- ------- ------- ------------------ ---------------------
  27. 01003.MPLS AVC 1:38:07 19 306 364 928 22 788 868 388 26,23 20,00 LPCM 2.0 1536Kbps (48kHz/16-bit) DTS-HD Master 5.1 3061Kbps (48kHz/16-bit)
  28. [/code]
  29.  
  30. [code]
  31.  
  32. DISC INFO:
  33.  
  34. Disc Title: DISK_1
  35. Disc Size: 22 788 868 388 bytes
  36. Protection: AACS
  37. BD-Java: Yes
  38. BDInfo: 0.5.8
  39.  
  40. PLAYLIST REPORT:
  41.  
  42. Name: 01003.MPLS
  43. Length: 1:38:07.333 (h:m:s.ms)
  44. Size: 19 306 364 928 bytes
  45. Total Bitrate: 26,23 Mbps
  46.  
  47. VIDEO:
  48.  
  49. Codec Bitrate Description
  50. ----- ------- -----------
  51. MPEG-4 AVC Video 19998 kbps 1080p / 24 fps / 16:9 / High Profile 4.1
  52.  
  53. AUDIO:
  54.  
  55. Codec Language Bitrate Description
  56. ----- -------- ------- -----------
  57. LPCM Audio Undetermined 1536 kbps 2.0 / 48 kHz / 1536 kbps / 16-bit
  58. DTS-HD Master Audio Undetermined 3061 kbps 5.1 / 48 kHz / 3061 kbps / 16-bit (DTS Core: 5.1 / 48 kHz / 1509 kbps / 16-bit / DN -3dB)
  59.  
  60. FILES:
  61.  
  62. Name Time In Length Size Total Bitrate
  63. ---- ------- ------ ---- -------------
  64. 00004.M2TS 0:00:00.000 1:38:06.916 19 306 352 640 26 236
  65. 00007.M2TS 1:38:06.916 0:00:00.416 12 288 236
  66.  
  67. CHAPTERS:
  68.  
  69. Number Time In Length Avg Video Rate Max 1-Sec Rate Max 1-Sec Time Max 5-Sec Rate Max 5-Sec Time Max 10Sec Rate Max 10Sec Time Avg Frame Size Max Frame Size Max Frame Time
  70. ------ ------- ------ -------------- -------------- -------------- -------------- -------------- -------------- -------------- -------------- -------------- --------------
  71. 1 0:00:00.000 0:01:08.750 15 444 kbps 36 922 kbps 00:01:01.291 27 724 kbps 00:00:59.958 20 127 kbps 00:00:54.916 80 386 bytes 496 085 bytes 00:01:02.333
  72. 2 0:01:08.750 0:04:38.750 17 543 kbps 37 977 kbps 00:02:24.333 27 770 kbps 00:05:36.916 25 409 kbps 00:05:31.874 91 369 bytes 435 121 bytes 00:01:28.625
  73. 3 0:05:47.500 0:04:50.625 20 474 kbps 37 393 kbps 00:10:05.041 28 708 kbps 00:09:25.291 27 800 kbps 00:09:20.541 106 636 bytes 425 500 bytes 00:06:55.458
  74. 4 0:10:38.125 0:05:13.541 21 832 kbps 49 222 kbps 00:13:00.500 33 104 kbps 00:13:00.500 27 003 kbps 00:12:58.041 113 706 bytes 514 981 bytes 00:14:50.583
  75. 5 0:15:51.666 0:06:20.624 20 367 kbps 50 886 kbps 00:20:45.458 31 006 kbps 00:17:04.750 26 980 kbps 00:19:50.666 106 078 bytes 563 198 bytes 00:18:36.333
  76. 6 0:22:12.291 0:05:37.500 20 408 kbps 47 204 kbps 00:26:52.916 30 435 kbps 00:26:40.791 27 753 kbps 00:26:52.916 106 291 bytes 535 603 bytes 00:23:46.958
  77. 7 0:27:49.791 0:06:04.583 22 116 kbps 44 372 kbps 00:29:07.999 35 049 kbps 00:33:20.416 31 664 kbps 00:33:20.208 115 187 bytes 460 218 bytes 00:28:12.250
  78. 8 0:33:54.375 0:06:54.583 21 023 kbps 38 993 kbps 00:37:40.416 29 967 kbps 00:36:35.208 27 903 kbps 00:36:30.291 109 496 bytes 502 713 bytes 00:34:04.458
  79. 9 0:40:48.958 0:04:50.625 22 215 kbps 48 385 kbps 00:44:51.000 34 322 kbps 00:44:47.416 30 243 kbps 00:44:47.000 115 703 bytes 502 109 bytes 00:44:51.791
  80. 10 0:45:39.583 0:06:53.541 17 411 kbps 41 910 kbps 00:51:57.000 34 628 kbps 00:51:55.958 27 206 kbps 00:51:50.916 90 684 bytes 411 171 bytes 00:48:51.250
  81. 11 0:52:33.125 0:07:25.833 18 933 kbps 52 304 kbps 00:59:01.000 32 969 kbps 00:58:57.375 28 848 kbps 00:58:52.375 98 608 bytes 543 613 bytes 00:59:01.541
  82. 12 0:59:58.958 0:05:42.708 20 379 kbps 41 231 kbps 01:02:19.708 34 903 kbps 01:02:48.958 29 668 kbps 01:02:46.833 106 140 bytes 518 318 bytes 01:02:20.250
  83. 13 1:05:41.666 0:04:40.208 21 006 kbps 45 166 kbps 01:07:26.083 31 807 kbps 01:05:56.250 27 605 kbps 01:06:20.416 109 407 bytes 573 035 bytes 01:06:56.041
  84. 14 1:10:21.875 0:10:57.291 18 542 kbps 45 746 kbps 01:16:43.166 35 458 kbps 01:19:42.250 30 036 kbps 01:12:38.499 96 571 bytes 560 020 bytes 01:11:52.000
  85. 15 1:21:19.166 0:08:13.750 20 242 kbps 43 186 kbps 01:27:46.124 33 123 kbps 01:26:41.708 28 853 kbps 01:24:53.499 105 427 bytes 419 636 bytes 01:22:43.875
  86. 16 1:29:32.916 0:04:49.583 21 535 kbps 42 384 kbps 01:32:10.291 31 912 kbps 01:33:11.083 30 099 kbps 01:33:10.791 112 164 bytes 417 592 bytes 01:31:20.166
  87. 17 1:34:22.500 0:03:44.833 18 618 kbps 42 114 kbps 01:36:40.458 30 699 kbps 01:36:38.041 26 746 kbps 01:36:33.124 96 986 bytes 387 381 bytes 01:34:32.958
  88.  
  89. STREAM DIAGNOSTICS:
  90.  
  91. File PID Type Codec Language Seconds Bitrate Bytes Packets
  92. ---- --- ---- ----- -------- -------------- -------------- ------------- -----
  93. 00004.M2TS 4113 (0x1011) 0x1B AVC 5886,750 20 000 14 717 163 704 80 067 795
  94. 00004.M2TS 4352 (0x1100) 0x80 LPCM und (Undetermined) 5886,750 1 542 1 134 994 136 7 064 299
  95. 00004.M2TS 4353 (0x1101) 0x86 DTS-HD MA und (Undetermined) 5886,750 3 061 2 252 603 956 13 160 191
  96. 00007.M2TS 4113 (0x1011) 0x1B AVC 0,250 168 5 263 32
  97.  
  98. [/code]
  99. <---- END FORUMS PASTE ---->
  100.  
  101. QUICK SUMMARY:
  102.  
  103. Disc Title: DISK_1
  104. Disc Size: 22 788 868 388 bytes
  105. Protection: AACS
  106. BD-Java: Yes
  107. Playlist: 01003.MPLS
  108. Size: 19 306 364 928 bytes
  109. Length: 1:38:07.333
  110. Total Bitrate: 26,23 Mbps
  111. Video: MPEG-4 AVC Video / 19998 kbps / 1080p / 24 fps / 16:9 / High Profile 4.1
  112. Audio: Undetermined / LPCM Audio / 2.0 / 48 kHz / 1536 kbps / 16-bit
  113. Audio: Undetermined / DTS-HD Master Audio / 5.1 / 48 kHz / 3061 kbps / 16-bit (DTS Core: 5.1 / 48 kHz / 1509 kbps / 16-bit / DN -3dB)
  114.  
  115.  
  116. ********************
  117. PLAYLIST: 00004.MPLS
  118. ********************
  119.  
  120. <--- BEGIN FORUMS PASTE --->
  121. [code]
  122. Total Video
  123. Title Codec Length Movie Size Disc Size Bitrate Bitrate Main Audio Track Secondary Audio Track
  124. ----- ------ ------- -------------- -------------- ------- ------- ------------------ ---------------------
  125. 00004.MPLS AVC 1:38:06 19 306 352 640 22 788 868 388 26,24 20,00 LPCM 2.0 1536Kbps (48kHz/16-bit) DTS-HD Master 5.1 3061Kbps (48kHz/16-bit)
  126. [/code]
  127.  
  128. [code]
  129.  
  130. DISC INFO:
  131.  
  132. Disc Title: DISK_1
  133. Disc Size: 22 788 868 388 bytes
  134. Protection: AACS
  135. BD-Java: Yes
  136. BDInfo: 0.5.8
  137.  
  138. PLAYLIST REPORT:
  139.  
  140. Name: 00004.MPLS
  141. Length: 1:38:06.916 (h:m:s.ms)
  142. Size: 19 306 352 640 bytes
  143. Total Bitrate: 26,24 Mbps
  144.  
  145. VIDEO:
  146.  
  147. Codec Bitrate Description
  148. ----- ------- -----------
  149. MPEG-4 AVC Video 20000 kbps 1080p / 24 fps / 16:9 / High Profile 4.1
  150.  
  151. AUDIO:
  152.  
  153. Codec Language Bitrate Description
  154. ----- -------- ------- -----------
  155. LPCM Audio Undetermined 1536 kbps 2.0 / 48 kHz / 1536 kbps / 16-bit
  156. DTS-HD Master Audio Undetermined 3061 kbps 5.1 / 48 kHz / 3061 kbps / 16-bit (DTS Core: 5.1 / 48 kHz / 1509 kbps / 16-bit / DN -3dB)
  157.  
  158. FILES:
  159.  
  160. Name Time In Length Size Total Bitrate
  161. ---- ------- ------ ---- -------------
  162. 00004.M2TS 0:00:00.000 1:38:06.916 19 306 352 640 26 236
  163.  
  164. CHAPTERS:
  165.  
  166. Number Time In Length Avg Video Rate Max 1-Sec Rate Max 1-Sec Time Max 5-Sec Rate Max 5-Sec Time Max 10Sec Rate Max 10Sec Time Avg Frame Size Max Frame Size Max Frame Time
  167. ------ ------- ------ -------------- -------------- -------------- -------------- -------------- -------------- -------------- -------------- -------------- --------------
  168. 1 0:00:00.000 1:38:06.916 20 000 kbps 52 304 kbps 00:59:01.000 35 458 kbps 01:19:42.250 31 664 kbps 00:33:20.208 104 166 bytes 573 035 bytes 01:06:56.041
  169.  
  170. STREAM DIAGNOSTICS:
  171.  
  172. File PID Type Codec Language Seconds Bitrate Bytes Packets
  173. ---- --- ---- ----- -------- -------------- -------------- ------------- -----
  174. 00004.M2TS 4113 (0x1011) 0x1B AVC 5886,750 20 000 14 717 163 704 80 067 795
  175. 00004.M2TS 4352 (0x1100) 0x80 LPCM und (Undetermined) 5886,750 1 542 1 134 994 136 7 064 299
  176. 00004.M2TS 4353 (0x1101) 0x86 DTS-HD MA und (Undetermined) 5886,750 3 061 2 252 603 956 13 160 191
  177.  
  178. [/code]
  179. <---- END FORUMS PASTE ---->
  180.  
  181. QUICK SUMMARY:
  182.  
  183. Disc Title: DISK_1
  184. Disc Size: 22 788 868 388 bytes
  185. Protection: AACS
  186. BD-Java: Yes
  187. Playlist: 00004.MPLS
  188. Size: 19 306 352 640 bytes
  189. Length: 1:38:06.916
  190. Total Bitrate: 26,24 Mbps
  191. Video: MPEG-4 AVC Video / 20000 kbps / 1080p / 24 fps / 16:9 / High Profile 4.1
  192. Audio: Undetermined / LPCM Audio / 2.0 / 48 kHz / 1536 kbps / 16-bit
  193. Audio: Undetermined / DTS-HD Master Audio / 5.1 / 48 kHz / 3061 kbps / 16-bit (DTS Core: 5.1 / 48 kHz / 1509 kbps / 16-bit / DN -3dB)
  194.  
  195.  
  196. ********************
  197. PLAYLIST: 01005.MPLS
  198. ********************
  199.  
  200. <--- BEGIN FORUMS PASTE --->
  201. [code]
  202. Total Video
  203. Title Codec Length Movie Size Disc Size Bitrate Bitrate Main Audio Track Secondary Audio Track
  204. ----- ------ ------- -------------- -------------- ------- ------- ------------------ ---------------------
  205. 01005.MPLS AVC 0:11:00 1 882 152 960 22 788 868 388 22,79 19,99 LPCM 2.0 1536Kbps (48kHz/16-bit)
  206. [/code]
  207.  
  208. [code]
  209.  
  210. DISC INFO:
  211.  
  212. Disc Title: DISK_1
  213. Disc Size: 22 788 868 388 bytes
  214. Protection: AACS
  215. BD-Java: Yes
  216. BDInfo: 0.5.8
  217.  
  218. PLAYLIST REPORT:
  219.  
  220. Name: 01005.MPLS
  221. Length: 0:11:00.750 (h:m:s.ms)
  222. Size: 1 882 152 960 bytes
  223. Total Bitrate: 22,79 Mbps
  224.  
  225. VIDEO:
  226.  
  227. Codec Bitrate Description
  228. ----- ------- -----------
  229. MPEG-4 AVC Video 19987 kbps 1080p / 24 fps / 16:9 / High Profile 4.1
  230.  
  231. AUDIO:
  232.  
  233. Codec Language Bitrate Description
  234. ----- -------- ------- -----------
  235. LPCM Audio Undetermined 1536 kbps 2.0 / 48 kHz / 1536 kbps / 16-bit
  236.  
  237. FILES:
  238.  
  239. Name Time In Length Size Total Bitrate
  240. ---- ------- ------ ---- -------------
  241. 00006.M2TS 0:00:00.000 0:11:00.333 1 882 140 672 22 802
  242. 00007.M2TS 0:11:00.333 0:00:00.416 12 288 236
  243.  
  244. CHAPTERS:
  245.  
  246. Number Time In Length Avg Video Rate Max 1-Sec Rate Max 1-Sec Time Max 5-Sec Rate Max 5-Sec Time Max 10Sec Rate Max 10Sec Time Avg Frame Size Max Frame Size Max Frame Time
  247. ------ ------- ------ -------------- -------------- -------------- -------------- -------------- -------------- -------------- -------------- -------------- --------------
  248. 1 0:00:00.000 0:11:00.750 19 987 kbps 48 546 kbps 00:10:37.291 33 080 kbps 00:04:54.916 27 378 kbps 00:04:50.208 104 099 bytes 455 883 bytes 00:10:37.833
  249.  
  250. STREAM DIAGNOSTICS:
  251.  
  252. File PID Type Codec Language Seconds Bitrate Bytes Packets
  253. ---- --- ---- ----- -------- -------------- -------------- ------------- -----
  254. 00006.M2TS 4113 (0x1011) 0x1B AVC 660,250 20 002 1 650 801 746 8 981 046
  255. 00006.M2TS 4352 (0x1100) 0x80 LPCM und (Undetermined) 660,250 1 543 127 312 588 792 402
  256. 00007.M2TS 4113 (0x1011) 0x1B AVC 0,250 168 5 263 32
  257.  
  258. [/code]
  259. <---- END FORUMS PASTE ---->
  260.  
  261. QUICK SUMMARY:
  262.  
  263. Disc Title: DISK_1
  264. Disc Size: 22 788 868 388 bytes
  265. Protection: AACS
  266. BD-Java: Yes
  267. Playlist: 01005.MPLS
  268. Size: 1 882 152 960 bytes
  269. Length: 0:11:00.750
  270. Total Bitrate: 22,79 Mbps
  271. Video: MPEG-4 AVC Video / 19987 kbps / 1080p / 24 fps / 16:9 / High Profile 4.1
  272. Audio: Undetermined / LPCM Audio / 2.0 / 48 kHz / 1536 kbps / 16-bit
  273.  
  274.  
  275. ********************
  276. PLAYLIST: 00006.MPLS
  277. ********************
  278.  
  279. <--- BEGIN FORUMS PASTE --->
  280. [code]
  281. Total Video
  282. Title Codec Length Movie Size Disc Size Bitrate Bitrate Main Audio Track Secondary Audio Track
  283. ----- ------ ------- -------------- -------------- ------- ------- ------------------ ---------------------
  284. 00006.MPLS AVC 0:11:00 1 882 140 672 22 788 868 388 22,80 20,00 LPCM 2.0 1536Kbps (48kHz/16-bit)
  285. [/code]
  286.  
  287. [code]
  288.  
  289. DISC INFO:
  290.  
  291. Disc Title: DISK_1
  292. Disc Size: 22 788 868 388 bytes
  293. Protection: AACS
  294. BD-Java: Yes
  295. BDInfo: 0.5.8
  296.  
  297. PLAYLIST REPORT:
  298.  
  299. Name: 00006.MPLS
  300. Length: 0:11:00.333 (h:m:s.ms)
  301. Size: 1 882 140 672 bytes
  302. Total Bitrate: 22,80 Mbps
  303.  
  304. VIDEO:
  305.  
  306. Codec Bitrate Description
  307. ----- ------- -----------
  308. MPEG-4 AVC Video 20000 kbps 1080p / 24 fps / 16:9 / High Profile 4.1
  309.  
  310. AUDIO:
  311.  
  312. Codec Language Bitrate Description
  313. ----- -------- ------- -----------
  314. LPCM Audio Undetermined 1536 kbps 2.0 / 48 kHz / 1536 kbps / 16-bit
  315.  
  316. FILES:
  317.  
  318. Name Time In Length Size Total Bitrate
  319. ---- ------- ------ ---- -------------
  320. 00006.M2TS 0:00:00.000 0:11:00.333 1 882 140 672 22 802
  321.  
  322. CHAPTERS:
  323.  
  324. Number Time In Length Avg Video Rate Max 1-Sec Rate Max 1-Sec Time Max 5-Sec Rate Max 5-Sec Time Max 10Sec Rate Max 10Sec Time Avg Frame Size Max Frame Size Max Frame Time
  325. ------ ------- ------ -------------- -------------- -------------- -------------- -------------- -------------- -------------- -------------- -------------- --------------
  326. 1 0:00:00.000 0:11:00.333 20 000 kbps 48 546 kbps 00:10:37.291 33 080 kbps 00:04:54.916 27 378 kbps 00:04:50.208 104 165 bytes 455 883 bytes 00:10:37.833
  327.  
  328. STREAM DIAGNOSTICS:
  329.  
  330. File PID Type Codec Language Seconds Bitrate Bytes Packets
  331. ---- --- ---- ----- -------- -------------- -------------- ------------- -----
  332. 00006.M2TS 4113 (0x1011) 0x1B AVC 660,250 20 002 1 650 801 746 8 981 046
  333. 00006.M2TS 4352 (0x1100) 0x80 LPCM und (Undetermined) 660,250 1 543 127 312 588 792 402
  334.  
  335. [/code]
  336. <---- END FORUMS PASTE ---->
  337.  
  338. QUICK SUMMARY:
  339.  
  340. Disc Title: DISK_1
  341. Disc Size: 22 788 868 388 bytes
  342. Protection: AACS
  343. BD-Java: Yes
  344. Playlist: 00006.MPLS
  345. Size: 1 882 140 672 bytes
  346. Length: 0:11:00.333
  347. Total Bitrate: 22,80 Mbps
  348. Video: MPEG-4 AVC Video / 20000 kbps / 1080p / 24 fps / 16:9 / High Profile 4.1
  349. Audio: Undetermined / LPCM Audio / 2.0 / 48 kHz / 1536 kbps / 16-bit
  350.  
  351.  
  352. ********************
  353. PLAYLIST: 01004.MPLS
  354. ********************
  355.  
  356. <--- BEGIN FORUMS PASTE --->
  357. [code]
  358. Total Video
  359. Title Codec Length Movie Size Disc Size Bitrate Bitrate Main Audio Track Secondary Audio Track
  360. ----- ------ ------- -------------- -------------- ------- ------- ------------------ ---------------------
  361. 01004.MPLS AVC 0:05:27 931 971 072 22 788 868 388 22,77 19,97 LPCM 2.0 1536Kbps (48kHz/16-bit)
  362. [/code]
  363.  
  364. [code]
  365.  
  366. DISC INFO:
  367.  
  368. Disc Title: DISK_1
  369. Disc Size: 22 788 868 388 bytes
  370. Protection: AACS
  371. BD-Java: Yes
  372. BDInfo: 0.5.8
  373.  
  374. PLAYLIST REPORT:
  375.  
  376. Name: 01004.MPLS
  377. Length: 0:05:27.416 (h:m:s.ms)
  378. Size: 931 971 072 bytes
  379. Total Bitrate: 22,77 Mbps
  380.  
  381. VIDEO:
  382.  
  383. Codec Bitrate Description
  384. ----- ------- -----------
  385. MPEG-4 AVC Video 19972 kbps 1080p / 24 fps / 16:9 / High Profile 4.1
  386.  
  387. AUDIO:
  388.  
  389. Codec Language Bitrate Description
  390. ----- -------- ------- -----------
  391. LPCM Audio Undetermined 1536 kbps 2.0 / 48 kHz / 1536 kbps / 16-bit
  392.  
  393. FILES:
  394.  
  395. Name Time In Length Size Total Bitrate
  396. ---- ------- ------ ---- -------------
  397. 00005.M2TS 0:00:00.000 0:05:27.000 931 958 784 22 800
  398. 00007.M2TS 0:05:27.000 0:00:00.416 12 288 236
  399.  
  400. CHAPTERS:
  401.  
  402. Number Time In Length Avg Video Rate Max 1-Sec Rate Max 1-Sec Time Max 5-Sec Rate Max 5-Sec Time Max 10Sec Rate Max 10Sec Time Avg Frame Size Max Frame Size Max Frame Time
  403. ------ ------- ------ -------------- -------------- -------------- -------------- -------------- -------------- -------------- -------------- -------------- --------------
  404. 1 0:00:00.000 0:05:27.416 19 972 kbps 34 361 kbps 00:04:42.708 27 505 kbps 00:02:39.458 26 623 kbps 00:02:33.625 104 020 bytes 427 324 bytes 00:04:43.750
  405.  
  406. STREAM DIAGNOSTICS:
  407.  
  408. File PID Type Codec Language Seconds Bitrate Bytes Packets
  409. ---- --- ---- ----- -------- -------------- -------------- ------------- -----
  410. 00005.M2TS 4113 (0x1011) 0x1B AVC 326,833 20 007 817 382 201 4 446 995
  411. 00005.M2TS 4352 (0x1100) 0x80 LPCM und (Undetermined) 326,833 1 543 63 044 636 392 399
  412. 00007.M2TS 4113 (0x1011) 0x1B AVC 0,250 168 5 263 32
  413.  
  414. [/code]
  415. <---- END FORUMS PASTE ---->
  416.  
  417. QUICK SUMMARY:
  418.  
  419. Disc Title: DISK_1
  420. Disc Size: 22 788 868 388 bytes
  421. Protection: AACS
  422. BD-Java: Yes
  423. Playlist: 01004.MPLS
  424. Size: 931 971 072 bytes
  425. Length: 0:05:27.416
  426. Total Bitrate: 22,77 Mbps
  427. Video: MPEG-4 AVC Video / 19972 kbps / 1080p / 24 fps / 16:9 / High Profile 4.1
  428. Audio: Undetermined / LPCM Audio / 2.0 / 48 kHz / 1536 kbps / 16-bit
  429.  
  430.  
  431. ********************
  432. PLAYLIST: 00005.MPLS
  433. ********************
  434.  
  435. <--- BEGIN FORUMS PASTE --->
  436. [code]
  437. Total Video
  438. Title Codec Length Movie Size Disc Size Bitrate Bitrate Main Audio Track Secondary Audio Track
  439. ----- ------ ------- -------------- -------------- ------- ------- ------------------ ---------------------
  440. 00005.MPLS AVC 0:05:27 931 958 784 22 788 868 388 22,80 20,00 LPCM 2.0 1536Kbps (48kHz/16-bit)
  441. [/code]
  442.  
  443. [code]
  444.  
  445. DISC INFO:
  446.  
  447. Disc Title: DISK_1
  448. Disc Size: 22 788 868 388 bytes
  449. Protection: AACS
  450. BD-Java: Yes
  451. BDInfo: 0.5.8
  452.  
  453. PLAYLIST REPORT:
  454.  
  455. Name: 00005.MPLS
  456. Length: 0:05:27.000 (h:m:s.ms)
  457. Size: 931 958 784 bytes
  458. Total Bitrate: 22,80 Mbps
  459.  
  460. VIDEO:
  461.  
  462. Codec Bitrate Description
  463. ----- ------- -----------
  464. MPEG-4 AVC Video 19997 kbps 1080p / 24 fps / 16:9 / High Profile 4.1
  465.  
  466. AUDIO:
  467.  
  468. Codec Language Bitrate Description
  469. ----- -------- ------- -----------
  470. LPCM Audio Undetermined 1536 kbps 2.0 / 48 kHz / 1536 kbps / 16-bit
  471.  
  472. FILES:
  473.  
  474. Name Time In Length Size Total Bitrate
  475. ---- ------- ------ ---- -------------
  476. 00005.M2TS 0:00:00.000 0:05:27.000 931 958 784 22 800
  477.  
  478. CHAPTERS:
  479.  
  480. Number Time In Length Avg Video Rate Max 1-Sec Rate Max 1-Sec Time Max 5-Sec Rate Max 5-Sec Time Max 10Sec Rate Max 10Sec Time Avg Frame Size Max Frame Size Max Frame Time
  481. ------ ------- ------ -------------- -------------- -------------- -------------- -------------- -------------- -------------- -------------- -------------- --------------
  482. 1 0:00:00.000 0:05:27.000 19 997 kbps 34 361 kbps 00:04:42.708 27 505 kbps 00:02:39.458 26 623 kbps 00:02:33.625 104 152 bytes 427 324 bytes 00:04:43.750
  483.  
  484. STREAM DIAGNOSTICS:
  485.  
  486. File PID Type Codec Language Seconds Bitrate Bytes Packets
  487. ---- --- ---- ----- -------- -------------- -------------- ------------- -----
  488. 00005.M2TS 4113 (0x1011) 0x1B AVC 326,833 20 007 817 382 201 4 446 995
  489. 00005.M2TS 4352 (0x1100) 0x80 LPCM und (Undetermined) 326,833 1 543 63 044 636 392 399
  490.  
  491. [/code]
  492. <---- END FORUMS PASTE ---->
  493.  
  494. QUICK SUMMARY:
  495.  
  496. Disc Title: DISK_1
  497. Disc Size: 22 788 868 388 bytes
  498. Protection: AACS
  499. BD-Java: Yes
  500. Playlist: 00005.MPLS
  501. Size: 931 958 784 bytes
  502. Length: 0:05:27.000
  503. Total Bitrate: 22,80 Mbps
  504. Video: MPEG-4 AVC Video / 19997 kbps / 1080p / 24 fps / 16:9 / High Profile 4.1
  505. Audio: Undetermined / LPCM Audio / 2.0 / 48 kHz / 1536 kbps / 16-bit
  506.  
  507.  
  508. ********************
  509. PLAYLIST: 01001.MPLS
  510. ********************
  511.  
  512. <--- BEGIN FORUMS PASTE --->
  513. [code]
  514. Total Video
  515. Title Codec Length Movie Size Disc Size Bitrate Bitrate Main Audio Track Secondary Audio Track
  516. ----- ------ ------- -------------- -------------- ------- ------- ------------------ ---------------------
  517. 01001.MPLS AVC 0:00:45 127 653 888 22 788 868 388 22,53 19,75 LPCM 2.0 1536Kbps (48kHz/16-bit)
  518. [/code]
  519.  
  520. [code]
  521.  
  522. DISC INFO:
  523.  
  524. Disc Title: DISK_1
  525. Disc Size: 22 788 868 388 bytes
  526. Protection: AACS
  527. BD-Java: Yes
  528. BDInfo: 0.5.8
  529.  
  530. PLAYLIST REPORT:
  531.  
  532. Name: 01001.MPLS
  533. Length: 0:00:45.333 (h:m:s.ms)
  534. Size: 127 653 888 bytes
  535. Total Bitrate: 22,53 Mbps
  536.  
  537. VIDEO:
  538.  
  539. Codec Bitrate Description
  540. ----- ------- -----------
  541. MPEG-4 AVC Video 19751 kbps 1080p / 24 fps / 16:9 / High Profile 4.1
  542.  
  543. AUDIO:
  544.  
  545. Codec Language Bitrate Description
  546. ----- -------- ------- -----------
  547. LPCM Audio Undetermined 1536 kbps 2.0 / 48 kHz / 1536 kbps / 16-bit
  548.  
  549. FILES:
  550.  
  551. Name Time In Length Size Total Bitrate
  552. ---- ------- ------ ---- -------------
  553. 00001.M2TS 0:00:00.000 0:00:44.916 127 641 600 22 734
  554. 00007.M2TS 0:00:44.916 0:00:00.416 12 288 236
  555.  
  556. CHAPTERS:
  557.  
  558. Number Time In Length Avg Video Rate Max 1-Sec Rate Max 1-Sec Time Max 5-Sec Rate Max 5-Sec Time Max 10Sec Rate Max 10Sec Time Avg Frame Size Max Frame Size Max Frame Time
  559. ------ ------- ------ -------------- -------------- -------------- -------------- -------------- -------------- -------------- -------------- -------------- --------------
  560. 1 0:00:00.000 0:00:45.333 19 751 kbps 42 049 kbps 00:00:34.000 32 830 kbps 00:00:33.041 26 729 kbps 00:00:27.041 102 868 bytes 537 278 bytes 00:00:06.000
  561.  
  562. STREAM DIAGNOSTICS:
  563.  
  564. File PID Type Codec Language Seconds Bitrate Bytes Packets
  565. ---- --- ---- ----- -------- -------------- -------------- ------------- -----
  566. 00001.M2TS 4113 (0x1011) 0x1B AVC 44,792 19 989 111 915 253 608 863
  567. 00001.M2TS 4352 (0x1100) 0x80 LPCM und (Undetermined) 44,792 1 547 8 660 576 53 904
  568. 00007.M2TS 4113 (0x1011) 0x1B AVC 0,250 168 5 263 32
  569.  
  570. [/code]
  571. <---- END FORUMS PASTE ---->
  572.  
  573. QUICK SUMMARY:
  574.  
  575. Disc Title: DISK_1
  576. Disc Size: 22 788 868 388 bytes
  577. Protection: AACS
  578. BD-Java: Yes
  579. Playlist: 01001.MPLS
  580. Size: 127 653 888 bytes
  581. Length: 0:00:45.333
  582. Total Bitrate: 22,53 Mbps
  583. Video: MPEG-4 AVC Video / 19751 kbps / 1080p / 24 fps / 16:9 / High Profile 4.1
  584. Audio: Undetermined / LPCM Audio / 2.0 / 48 kHz / 1536 kbps / 16-bit
  585.  
  586.  
  587. ********************
  588. PLAYLIST: 00001.MPLS
  589. ********************
  590.  
  591. <--- BEGIN FORUMS PASTE --->
  592. [code]
  593. Total Video
  594. Title Codec Length Movie Size Disc Size Bitrate Bitrate Main Audio Track Secondary Audio Track
  595. ----- ------ ------- -------------- -------------- ------- ------- ------------------ ---------------------
  596. 00001.MPLS AVC 0:00:44 127 641 600 22 788 868 388 22,73 19,93 LPCM 2.0 1536Kbps (48kHz/16-bit)
  597. [/code]
  598.  
  599. [code]
  600.  
  601. DISC INFO:
  602.  
  603. Disc Title: DISK_1
  604. Disc Size: 22 788 868 388 bytes
  605. Protection: AACS
  606. BD-Java: Yes
  607. BDInfo: 0.5.8
  608.  
  609. PLAYLIST REPORT:
  610.  
  611. Name: 00001.MPLS
  612. Length: 0:00:44.916 (h:m:s.ms)
  613. Size: 127 641 600 bytes
  614. Total Bitrate: 22,73 Mbps
  615.  
  616. VIDEO:
  617.  
  618. Codec Bitrate Description
  619. ----- ------- -----------
  620. MPEG-4 AVC Video 19933 kbps 1080p / 24 fps / 16:9 / High Profile 4.1
  621.  
  622. AUDIO:
  623.  
  624. Codec Language Bitrate Description
  625. ----- -------- ------- -----------
  626. LPCM Audio Undetermined 1536 kbps 2.0 / 48 kHz / 1536 kbps / 16-bit
  627.  
  628. FILES:
  629.  
  630. Name Time In Length Size Total Bitrate
  631. ---- ------- ------ ---- -------------
  632. 00001.M2TS 0:00:00.000 0:00:44.916 127 641 600 22 734
  633.  
  634. CHAPTERS:
  635.  
  636. Number Time In Length Avg Video Rate Max 1-Sec Rate Max 1-Sec Time Max 5-Sec Rate Max 5-Sec Time Max 10Sec Rate Max 10Sec Time Avg Frame Size Max Frame Size Max Frame Time
  637. ------ ------- ------ -------------- -------------- -------------- -------------- -------------- -------------- -------------- -------------- -------------- --------------
  638. 1 0:00:00.000 0:00:44.916 19 933 kbps 42 049 kbps 00:00:34.000 32 830 kbps 00:00:33.041 26 729 kbps 00:00:27.041 103 817 bytes 537 278 bytes 00:00:06.000
  639.  
  640. STREAM DIAGNOSTICS:
  641.  
  642. File PID Type Codec Language Seconds Bitrate Bytes Packets
  643. ---- --- ---- ----- -------- -------------- -------------- ------------- -----
  644. 00001.M2TS 4113 (0x1011) 0x1B AVC 44,792 19 989 111 915 253 608 863
  645. 00001.M2TS 4352 (0x1100) 0x80 LPCM und (Undetermined) 44,792 1 547 8 660 576 53 904
  646.  
  647. [/code]
  648. <---- END FORUMS PASTE ---->
  649.  
  650. QUICK SUMMARY:
  651.  
  652. Disc Title: DISK_1
  653. Disc Size: 22 788 868 388 bytes
  654. Protection: AACS
  655. BD-Java: Yes
  656. Playlist: 00001.MPLS
  657. Size: 127 641 600 bytes
  658. Length: 0:00:44.916
  659. Total Bitrate: 22,73 Mbps
  660. Video: MPEG-4 AVC Video / 19933 kbps / 1080p / 24 fps / 16:9 / High Profile 4.1
  661. Audio: Undetermined / LPCM Audio / 2.0 / 48 kHz / 1536 kbps / 16-bit
  662.  
  663.  
  664. ********************
  665. PLAYLIST: 00002.MPLS
  666. ********************
  667.  
  668. <--- BEGIN FORUMS PASTE --->
  669. [code]
  670. Total Video
  671. Title Codec Length Movie Size Disc Size Bitrate Bitrate Main Audio Track Secondary Audio Track
  672. ----- ------ ------- -------------- -------------- ------- ------- ------------------ ---------------------
  673. 00002.MPLS AVC 0:01:41 287 778 816 22 788 868 388 22,79 19,99 LPCM 2.0 1536Kbps (48kHz/16-bit)
  674. [/code]
  675.  
  676. [code]
  677.  
  678. DISC INFO:
  679.  
  680. Disc Title: DISK_1
  681. Disc Size: 22 788 868 388 bytes
  682. Protection: AACS
  683. BD-Java: Yes
  684. BDInfo: 0.5.8
  685.  
  686. PLAYLIST REPORT:
  687.  
  688. Name: 00002.MPLS
  689. Length: 0:01:41.000 (h:m:s.ms)
  690. Size: 287 778 816 bytes
  691. Total Bitrate: 22,79 Mbps
  692.  
  693. VIDEO:
  694.  
  695. Codec Bitrate Description
  696. ----- ------- -----------
  697. MPEG-4 AVC Video 19992 kbps 1080p / 24 fps / 16:9 / High Profile 4.1
  698.  
  699. AUDIO:
  700.  
  701. Codec Language Bitrate Description
  702. ----- -------- ------- -----------
  703. LPCM Audio Undetermined 1536 kbps 2.0 / 48 kHz / 1536 kbps / 16-bit
  704.  
  705. FILES:
  706.  
  707. Name Time In Length Size Total Bitrate
  708. ---- ------- ------ ---- -------------
  709. 00002.M2TS 0:00:00.000 0:01:41.000 287 778 816 22 794
  710.  
  711. CHAPTERS:
  712.  
  713. Number Time In Length Avg Video Rate Max 1-Sec Rate Max 1-Sec Time Max 5-Sec Rate Max 5-Sec Time Max 10Sec Rate Max 10Sec Time Avg Frame Size Max Frame Size Max Frame Time
  714. ------ ------- ------ -------------- -------------- -------------- -------------- -------------- -------------- -------------- -------------- -------------- --------------
  715. 1 0:00:00.000 0:01:41.000 19 991 kbps 29 063 kbps 00:00:10.958 25 140 kbps 00:00:11.291 22 822 kbps 00:00:10.958 104 122 bytes 511 065 bytes 00:00:12.000
  716.  
  717. STREAM DIAGNOSTICS:
  718.  
  719. File PID Type Codec Language Seconds Bitrate Bytes Packets
  720. ---- --- ---- ----- -------- -------------- -------------- ------------- -----
  721. 00002.M2TS 4113 (0x1011) 0x1B AVC 100,875 20 016 252 392 684 1 373 125
  722. 00002.M2TS 4352 (0x1100) 0x80 LPCM und (Undetermined) 100,875 1 544 19 472 800 121 200
  723.  
  724. [/code]
  725. <---- END FORUMS PASTE ---->
  726.  
  727. QUICK SUMMARY:
  728.  
  729. Disc Title: DISK_1
  730. Disc Size: 22 788 868 388 bytes
  731. Protection: AACS
  732. BD-Java: Yes
  733. Playlist: 00002.MPLS
  734. Size: 287 778 816 bytes
  735. Length: 0:01:41.000
  736. Total Bitrate: 22,79 Mbps
  737. Video: MPEG-4 AVC Video / 19992 kbps / 1080p / 24 fps / 16:9 / High Profile 4.1
  738. Audio: Undetermined / LPCM Audio / 2.0 / 48 kHz / 1536 kbps / 16-bit
  739.  
  740.  
  741. ********************
  742. PLAYLIST: 01002.MPLS
  743. ********************
  744.  
  745. <--- BEGIN FORUMS PASTE --->
  746. [code]
  747. Total Video
  748. Title Codec Length Movie Size Disc Size Bitrate Bitrate Main Audio Track Secondary Audio Track
  749. ----- ------ ------- -------------- -------------- ------- ------- ------------------ ---------------------
  750. 01002.MPLS AVC 0:01:41 287 778 816 22 788 868 388 22,79 19,99 LPCM 2.0 1536Kbps (48kHz/16-bit)
  751. [/code]
  752.  
  753. [code]
  754.  
  755. DISC INFO:
  756.  
  757. Disc Title: DISK_1
  758. Disc Size: 22 788 868 388 bytes
  759. Protection: AACS
  760. BD-Java: Yes
  761. BDInfo: 0.5.8
  762.  
  763. PLAYLIST REPORT:
  764.  
  765. Name: 01002.MPLS
  766. Length: 0:01:41.000 (h:m:s.ms)
  767. Size: 287 778 816 bytes
  768. Total Bitrate: 22,79 Mbps
  769.  
  770. VIDEO:
  771.  
  772. Codec Bitrate Description
  773. ----- ------- -----------
  774. MPEG-4 AVC Video 19992 kbps 1080p / 24 fps / 16:9 / High Profile 4.1
  775.  
  776. AUDIO:
  777.  
  778. Codec Language Bitrate Description
  779. ----- -------- ------- -----------
  780. LPCM Audio Undetermined 1536 kbps 2.0 / 48 kHz / 1536 kbps / 16-bit
  781.  
  782. FILES:
  783.  
  784. Name Time In Length Size Total Bitrate
  785. ---- ------- ------ ---- -------------
  786. 00002.M2TS 0:00:00.000 0:01:41.000 287 778 816 22 794
  787.  
  788. CHAPTERS:
  789.  
  790. Number Time In Length Avg Video Rate Max 1-Sec Rate Max 1-Sec Time Max 5-Sec Rate Max 5-Sec Time Max 10Sec Rate Max 10Sec Time Avg Frame Size Max Frame Size Max Frame Time
  791. ------ ------- ------ -------------- -------------- -------------- -------------- -------------- -------------- -------------- -------------- -------------- --------------
  792. 1 0:00:00.000 0:00:14.416 15 099 kbps 29 063 kbps 00:00:10.958 23 062 kbps 00:00:09.333 16 756 kbps 00:00:04.375 78 413 bytes 511 065 bytes 00:00:12.000
  793. 2 0:00:14.416 0:01:26.583 20 806 kbps 28 725 kbps 00:00:14.958 22 712 kbps 00:01:21.291 22 056 kbps 00:01:20.958 108 418 bytes 495 366 bytes 00:00:15.000
  794.  
  795. STREAM DIAGNOSTICS:
  796.  
  797. File PID Type Codec Language Seconds Bitrate Bytes Packets
  798. ---- --- ---- ----- -------- -------------- -------------- ------------- -----
  799. 00002.M2TS 4113 (0x1011) 0x1B AVC 100,875 20 016 252 392 684 1 373 125
  800. 00002.M2TS 4352 (0x1100) 0x80 LPCM und (Undetermined) 100,875 1 544 19 472 800 121 200
  801.  
  802. [/code]
  803. <---- END FORUMS PASTE ---->
  804.  
  805. QUICK SUMMARY:
  806.  
  807. Disc Title: DISK_1
  808. Disc Size: 22 788 868 388 bytes
  809. Protection: AACS
  810. BD-Java: Yes
  811. Playlist: 01002.MPLS
  812. Size: 287 778 816 bytes
  813. Length: 0:01:41.000
  814. Total Bitrate: 22,79 Mbps
  815. Video: MPEG-4 AVC Video / 19992 kbps / 1080p / 24 fps / 16:9 / High Profile 4.1
  816. Audio: Undetermined / LPCM Audio / 2.0 / 48 kHz / 1536 kbps / 16-bit
  817.  
  818.  
  819. ********************
  820. PLAYLIST: 00003.MPLS
  821. ********************
  822.  
  823. <--- BEGIN FORUMS PASTE --->
  824. [code]
  825. Total Video
  826. Title Codec Length Movie Size Disc Size Bitrate Bitrate Main Audio Track Secondary Audio Track
  827. ----- ------ ------- -------------- -------------- ------- ------- ------------------ ---------------------
  828. 00003.MPLS AVC 0:01:23 238 774 272 22 788 868 388 22,82 20,02 LPCM 2.0 1536Kbps (48kHz/16-bit)
  829. [/code]
  830.  
  831. [code]
  832.  
  833. DISC INFO:
  834.  
  835. Disc Title: DISK_1
  836. Disc Size: 22 788 868 388 bytes
  837. Protection: AACS
  838. BD-Java: Yes
  839. BDInfo: 0.5.8
  840.  
  841. PLAYLIST REPORT:
  842.  
  843. Name: 00003.MPLS
  844. Length: 0:01:23.708 (h:m:s.ms)
  845. Size: 238 774 272 bytes
  846. Total Bitrate: 22,82 Mbps
  847.  
  848. VIDEO:
  849.  
  850. Codec Bitrate Description
  851. ----- ------- -----------
  852. MPEG-4 AVC Video 20016 kbps 1080p / 24 fps / 16:9 / High Profile 4.1
  853.  
  854. AUDIO:
  855.  
  856. Codec Language Bitrate Description
  857. ----- -------- ------- -----------
  858. LPCM Audio Undetermined 1536 kbps 2.0 / 48 kHz / 1536 kbps / 16-bit
  859.  
  860. FILES:
  861.  
  862. Name Time In Length Size Total Bitrate
  863. ---- ------- ------ ---- -------------
  864. 00003.M2TS 0:00:00.000 0:01:23.708 238 774 272 22 820
  865.  
  866. CHAPTERS:
  867.  
  868. Number Time In Length Avg Video Rate Max 1-Sec Rate Max 1-Sec Time Max 5-Sec Rate Max 5-Sec Time Max 10Sec Rate Max 10Sec Time Avg Frame Size Max Frame Size Max Frame Time
  869. ------ ------- ------ -------------- -------------- -------------- -------------- -------------- -------------- -------------- -------------- -------------- --------------
  870. 1 0:00:00.000 0:01:23.708 20 016 kbps 26 023 kbps 00:00:55.458 21 614 kbps 00:01:10.666 21 651 kbps 00:01:07.458 104 251 bytes 537 549 bytes 00:00:30.500
  871.  
  872. STREAM DIAGNOSTICS:
  873.  
  874. File PID Type Codec Language Seconds Bitrate Bytes Packets
  875. ---- --- ---- ----- -------- -------------- -------------- ------------- -----
  876. 00003.M2TS 4113 (0x1011) 0x1B AVC 83,625 20 036 209 440 014 1 139 417
  877. 00003.M2TS 4352 (0x1100) 0x80 LPCM und (Undetermined) 83,625 1 544 16 139 288 100 452
  878.  
  879. [/code]
  880. <---- END FORUMS PASTE ---->
  881.  
  882. QUICK SUMMARY:
  883.  
  884. Disc Title: DISK_1
  885. Disc Size: 22 788 868 388 bytes
  886. Protection: AACS
  887. BD-Java: Yes
  888. Playlist: 00003.MPLS
  889. Size: 238 774 272 bytes
  890. Length: 0:01:23.708
  891. Total Bitrate: 22,82 Mbps
  892. Video: MPEG-4 AVC Video / 20016 kbps / 1080p / 24 fps / 16:9 / High Profile 4.1
  893. Audio: Undetermined / LPCM Audio / 2.0 / 48 kHz / 1536 kbps / 16-bit
  894.  
  895.  
  896. ********************
  897. PLAYLIST: 01006.MPLS
  898. ********************
  899.  
  900. <--- BEGIN FORUMS PASTE --->
  901. [code]
  902. Total Video
  903. Title Codec Length Movie Size Disc Size Bitrate Bitrate Main Audio Track Secondary Audio Track
  904. ----- ------ ------- -------------- -------------- ------- ------- ------------------ ---------------------
  905. 01006.MPLS AVC 0:01:23 238 774 272 22 788 868 388 22,82 20,02 LPCM 2.0 1536Kbps (48kHz/16-bit)
  906. [/code]
  907.  
  908. [code]
  909.  
  910. DISC INFO:
  911.  
  912. Disc Title: DISK_1
  913. Disc Size: 22 788 868 388 bytes
  914. Protection: AACS
  915. BD-Java: Yes
  916. BDInfo: 0.5.8
  917.  
  918. PLAYLIST REPORT:
  919.  
  920. Name: 01006.MPLS
  921. Length: 0:01:23.708 (h:m:s.ms)
  922. Size: 238 774 272 bytes
  923. Total Bitrate: 22,82 Mbps
  924.  
  925. VIDEO:
  926.  
  927. Codec Bitrate Description
  928. ----- ------- -----------
  929. MPEG-4 AVC Video 20016 kbps 1080p / 24 fps / 16:9 / High Profile 4.1
  930.  
  931. AUDIO:
  932.  
  933. Codec Language Bitrate Description
  934. ----- -------- ------- -----------
  935. LPCM Audio Undetermined 1536 kbps 2.0 / 48 kHz / 1536 kbps / 16-bit
  936.  
  937. FILES:
  938.  
  939. Name Time In Length Size Total Bitrate
  940. ---- ------- ------ ---- -------------
  941. 00003.M2TS 0:00:00.000 0:01:23.708 238 774 272 22 820
  942.  
  943. CHAPTERS:
  944.  
  945. Number Time In Length Avg Video Rate Max 1-Sec Rate Max 1-Sec Time Max 5-Sec Rate Max 5-Sec Time Max 10Sec Rate Max 10Sec Time Avg Frame Size Max Frame Size Max Frame Time
  946. ------ ------- ------ -------------- -------------- -------------- -------------- -------------- -------------- -------------- -------------- -------------- --------------
  947. 1 0:00:00.000 0:01:23.708 20 016 kbps 26 023 kbps 00:00:55.458 21 614 kbps 00:01:10.666 21 651 kbps 00:01:07.458 104 251 bytes 537 549 bytes 00:00:30.500
  948.  
  949. STREAM DIAGNOSTICS:
  950.  
  951. File PID Type Codec Language Seconds Bitrate Bytes Packets
  952. ---- --- ---- ----- -------- -------------- -------------- ------------- -----
  953. 00003.M2TS 4113 (0x1011) 0x1B AVC 83,625 20 036 209 440 014 1 139 417
  954. 00003.M2TS 4352 (0x1100) 0x80 LPCM und (Undetermined) 83,625 1 544 16 139 288 100 452
  955.  
  956. [/code]
  957. <---- END FORUMS PASTE ---->
  958.  
  959. QUICK SUMMARY:
  960.  
  961. Disc Title: DISK_1
  962. Disc Size: 22 788 868 388 bytes
  963. Protection: AACS
  964. BD-Java: Yes
  965. Playlist: 01006.MPLS
  966. Size: 238 774 272 bytes
  967. Length: 0:01:23.708
  968. Total Bitrate: 22,82 Mbps
  969. Video: MPEG-4 AVC Video / 20016 kbps / 1080p / 24 fps / 16:9 / High Profile 4.1
  970. Audio: Undetermined / LPCM Audio / 2.0 / 48 kHz / 1536 kbps / 16-bit
RAW Paste Data