HYBRID_BEING

[LostYears] Love Tyrant - 03 (WEB 1080p Hi10 AAC) [D49FCDB1].mkv

Jun 11th, 2017
542
Never
Not a member of Pastebin yet? Sign Up, it unlocks many cool features!
  1. General
  2. Unique ID : 205889696525426342120657624893177722121 (0x9AE4E9C6071322A8A3867FA6BBEFF509)
  3. Complete name : [LostYears] Love Tyrant - 03 (WEB 1080p Hi10 AAC) [D49FCDB1].mkv
  4. Format : Matroska
  5. Format version : Version 4 / Version 2
  6. File size : 598 MiB
  7. Duration : 23mn 54s
  8. Overall bit rate : 3 494 Kbps
  9. Movie name : Love Tyrant E03: I Can Handle This Myself ! x Wassup
  10. Encoded date : UTC 2017-05-12 01:39:47
  11. Writing application : mkvmerge v11.0.0 ('Alive') 64bit
  12. Writing library : libebml v1.3.4 + libmatroska v1.4.5
  13. Attachments : onegai_teacher_-_a_prelude[h264.vorbis][niizk]_attachment_LTe50166.ttf / OpenSans-Semibold.ttf / thisprty.ttf / Vnvietay.ttf / LEHN037.ttf / LEHN214.TTF / A-OTF-ShinMGoPro-Bold-PlzIri.ttf / HeiseiMaruGoStd-W4-NakaImo.ttf / ARRBD_ECL2.ttf / A-OTF Shin Maru Go Pro M.ttf / shazihand.ttf / orbitron-black.ttf
  14.  
  15. Video
  16. ID : 1
  17. Format : AVC
  18. Format/Info : Advanced Video Codec
  19. Format profile : High 10@L5.1
  20. Format settings, CABAC : Yes
  21. Format settings, ReFrames : 16 frames
  22. Codec ID : V_MPEG4/ISO/AVC
  23. Duration : 23mn 54s
  24. Bit rate : 2 974 Kbps
  25. Width : 1 920 pixels
  26. Height : 1 080 pixels
  27. Display aspect ratio : 16:9
  28. Frame rate mode : Constant
  29. Frame rate : 23.976 (24000/1001) fps
  30. Color space : YUV
  31. Chroma subsampling : 4:2:0
  32. Bit depth : 10 bits
  33. Scan type : Progressive
  34. Bits/(Pixel*Frame) : 0.060
  35. Stream size : 509 MiB (85%)
  36. Writing library : x264 core 148 r2762+56 6284cf3 t_mod_Custom [10-bit@all X86_64]
  37. Encoding settings : cabac=1 / ref=16 / deblock=1:-1:-1 / analyse=0x3:0x133 / me=umh / subme=10 / psy=1 / fade_compensate=0.60 / psy_rd=0.75:0.05 / mixed_ref=1 / me_range=32 / chroma_me=1 / trellis=2 / 8x8dct=1 / cqm=0 / deadzone=21,11 / fast_pskip=1 / chroma_qp_offset=-3 / threads=6 / lookahead_threads=1 / sliced_threads=0 / nr=0 / decimate=0 / interlaced=0 / bluray_compat=0 / stitchable=1 / constrained_intra=0 / fgo=0 / bframes=10 / b_pyramid=2 / b_adapt=2 / b_bias=0 / direct=3 / weightb=1 / open_gop=0 / weightp=2 / keyint=250 / keyint_min=23 / scenecut=40 / intra_refresh=0 / rc_lookahead=48 / rc=crf / mbtree=1 / crf=17.0000 / qcomp=0.75 / qpmin=0:0:0 / qpmax=81:81:81 / qpstep=4 / ip_ratio=1.40 / aq=3:0.77 / aq-sensitivity=10.00 / aq-factor=1.00:1.00:1.00 / aq2=0 / aq3=0
  38. Default : Yes
  39. Forced : No
  40. Color range : Limited
  41. Matrix coefficients : BT.709
  42.  
  43. Audio #1
  44. ID : 2
  45. Format : AAC
  46. Format/Info : Advanced Audio Codec
  47. Format profile : LC
  48. Codec ID : A_AAC
  49. Duration : 23mn 54s
  50. Bit rate : 253 Kbps
  51. Channel(s) : 2 channels
  52. Channel positions : Front: L R
  53. Sampling rate : 48.0 KHz
  54. Frame rate : 46.875 fps (1024 spf)
  55. Compression mode : Lossy
  56. Delay relative to video : 13ms
  57. Stream size : 43.3 MiB (7%)
  58. Language : English
  59. Default : Yes
  60. Forced : No
  61.  
  62. Audio #2
  63. ID : 3
  64. Format : AAC
  65. Format/Info : Advanced Audio Codec
  66. Format profile : LC
  67. Codec ID : A_AAC
  68. Duration : 23mn 51s
  69. Bit rate : 252 Kbps
  70. Channel(s) : 2 channels
  71. Channel positions : Front: L R
  72. Sampling rate : 48.0 KHz
  73. Frame rate : 46.875 fps (1024 spf)
  74. Compression mode : Lossy
  75. Stream size : 43.1 MiB (7%)
  76. Language : Japanese
  77. Default : No
  78. Forced : No
  79.  
  80. Text #1
  81. ID : 4
  82. Format : ASS
  83. Codec ID : S_TEXT/ASS
  84. Codec ID/Info : Advanced Sub Station Alpha
  85. Duration : 23mn 20s
  86. Bit rate : 470 bps
  87. Count of elements : 416
  88. Compression mode : Lossless
  89. Stream size : 80.5 KiB (0%)
  90. Title : Signs & Songs
  91. Language : English
  92. Default : Yes
  93. Forced : No
  94.  
  95. Text #2
  96. ID : 5
  97. Format : ASS
  98. Codec ID : S_TEXT/ASS
  99. Codec ID/Info : Advanced Sub Station Alpha
  100. Duration : 23mn 51s
  101. Bit rate : 592 bps
  102. Count of elements : 811
  103. Compression mode : Lossless
  104. Stream size : 103 KiB (0%)
  105. Title : Dialogue
  106. Language : English
  107. Default : No
  108. Forced : No
  109.  
  110. Menu
  111. 00:00:00.000 : :Intro
  112. 00:00:34.034 : :OP
  113. 00:02:03.999 : :Episode
  114. 00:22:11.997 : :ED
  115. 00:23:41.962 : :Preview
RAW Paste Data