SHARE
TWEET

Fractured WEB-RIP 1080p

dirtyharrys Oct 13th, 2019 94 Never
Not a member of Pastebin yet? Sign Up, it unlocks many cool features!
  1. General
  2. Unique ID                   : 258049203514315126925335834396475020059 (0xC222780469F016A628E9D49BC354531B)
  3. Complete name               : E:\Fractured.2019.1080p.NF.WEB-DL.x264\Fractured.2019.1080p.NF.WEB-DL.x264.mkv
  4. Format                      : Matroska
  5. Format version              : Version 4
  6. File size                   : 2.56 GiB
  7. Duration                    : 1 h 40 min
  8. Overall bit rate mode       : Variable
  9. Overall bit rate            : 3 656 kb/s
  10. Movie name                  : Fractured WEB-DL / Fractured WEB-DL
  11. Encoded date                : UTC 2019-10-13 07:55:34
  12. Writing application         : mkvmerge v30.1.0 ('Forever And More') 32-bit
  13. Writing library             : libebml v1.3.6 + libmatroska v1.4.9
  14. Copyright                   : HARSHLEARNER
  15.  
  16. Video
  17. ID                          : 1
  18. Format                      : AVC
  19. Format/Info                 : Advanced Video Codec
  20. Format profile              : Main@L4
  21. Format settings             : CABAC / 3 Ref Frames
  22. Format settings, CABAC      : Yes
  23. Format settings, ReFrames   : 3 frames
  24. Codec ID                    : V_MPEG4/ISO/AVC
  25. Duration                    : 1 h 40 min
  26. Bit rate mode               : Variable
  27. Bit rate                    : 2 260 kb/s
  28. Maximum bit rate            : 3 390 kb/s
  29. Width                       : 1 920 pixels
  30. Height                      : 1 080 pixels
  31. Display aspect ratio        : 16:9
  32. Frame rate mode             : Constant
  33. Frame rate                  : 24.000 FPS
  34. Color space                 : YUV
  35. Chroma subsampling          : 4:2:0
  36. Bit depth                   : 8 bits
  37. Scan type                   : Progressive
  38. Bits/(Pixel*Frame)          : 0.045
  39. Stream size                 : 1.57 GiB (61%)
  40. Title                       : Fractured
  41. Writing library             : x264 core 148 r2715 7e75228
  42. Encoding settings           : cabac=1 / ref=3 / deblock=1:0:0 / analyse=0x1:0x111 / me=umh / subme=10 / psy=1 / psy_rd=1.00:0.00 / mixed_ref=1 / me_range=24 / chroma_me=1 / trellis=2 / 8x8dct=0 / cqm=0 / deadzone=21,11 / fast_pskip=1 / chroma_qp_offset=-2 / threads=8 / lookahead_threads=1 / sliced_threads=0 / nr=0 / decimate=1 / interlaced=0 / bluray_compat=0 / stitchable=1 / constrained_intra=0 / bframes=2 / b_pyramid=0 / b_adapt=2 / b_bias=0 / direct=3 / weightb=1 / open_gop=0 / weightp=2 / keyint=250 / keyint_min=24 / scenecut=0 / intra_refresh=0 / rc_lookahead=48 / rc=2pass / mbtree=1 / bitrate=2260 / ratetol=1.0 / qcomp=0.50 / qpmin=6 / qpmax=51 / qpstep=4 / cplxblur=20.0 / qblur=0.5 / vbv_maxrate=3390 / vbv_bufsize=4520 / nal_hrd=vbr / filler=0 / ip_ratio=1.40 / aq=1:1.00
  43. Language                    : English
  44. Default                     : Yes
  45. Forced                      : No
  46.  
  47. Audio #1
  48. ID                          : 2
  49. Format                      : E-AC-3 JOC
  50. Format/Info                 : Enhanced AC-3 with Joint Object Coding
  51. Commercial name             : Dolby Digital Plus with Dolby Atmos
  52. Codec ID                    : A_EAC3
  53. Duration                    : 1 h 40 min
  54. Bit rate mode               : Constant
  55. Bit rate                    : 768 kb/s
  56. Channel(s)                  : 6 channels
  57. Channel layout              : L R C LFE Ls Rs
  58. Sampling rate               : 48.0 kHz
  59. Frame rate                  : 31.250 FPS (1536 SPF)
  60. Compression mode            : Lossy
  61. Stream size                 : 550 MiB (21%)
  62. Title                       : English
  63. Language                    : English
  64. Service kind                : Complete Main
  65. Default                     : No
  66. Forced                      : No
  67. Complexity index            : 16
  68. Number of dynamic objects   : 15
  69. Bed channel count           : 1 channel
  70. Bed channel configuration   : LFE
  71.  
  72. Audio #2
  73. ID                          : 3
  74. Format                      : E-AC-3
  75. Format/Info                 : Enhanced AC-3
  76. Commercial name             : Dolby Digital Plus
  77. Codec ID                    : A_EAC3
  78. Duration                    : 1 h 40 min
  79. Bit rate mode               : Constant
  80. Bit rate                    : 640 kb/s
  81. Channel(s)                  : 6 channels
  82. Channel layout              : L R C LFE Ls Rs
  83. Sampling rate               : 48.0 kHz
  84. Frame rate                  : 31.250 FPS (1536 SPF)
  85. Compression mode            : Lossy
  86. Stream size                 : 458 MiB (18%)
  87. Title                       : Spanish
  88. Language                    : Spanish
  89. Service kind                : Complete Main
  90. Default                     : Yes
  91. Forced                      : Yes
  92.  
  93. Text #1
  94. ID                          : 4
  95. Format                      : UTF-8
  96. Codec ID                    : S_TEXT/UTF8
  97. Codec ID/Info               : UTF-8 Plain Text
  98. Duration                    : 1 h 31 min
  99. Bit rate                    : 65 b/s
  100. Count of elements           : 1406
  101. Stream size                 : 43.9 KiB (0%)
  102. Title                       : English
  103. Language                    : English
  104. Default                     : No
  105. Forced                      : No
  106.  
  107. Text #2
  108. ID                          : 5
  109. Format                      : UTF-8
  110. Codec ID                    : S_TEXT/UTF8
  111. Codec ID/Info               : UTF-8 Plain Text
  112. Duration                    : 1 h 38 min
  113. Bit rate                    : 73 b/s
  114. Count of elements           : 1632
  115. Stream size                 : 53.0 KiB (0%)
  116. Title                       : English SDH
  117. Language                    : English
  118. Default                     : No
  119. Forced                      : No
  120.  
  121. Text #3
  122. ID                          : 6
  123. Format                      : UTF-8
  124. Codec ID                    : S_TEXT/UTF8
  125. Codec ID/Info               : UTF-8 Plain Text
  126. Duration                    : 1 h 38 min
  127. Bit rate                    : 48 b/s
  128. Count of elements           : 1367
  129. Stream size                 : 35.4 KiB (0%)
  130. Title                       : Spanish
  131. Language                    : Spanish
  132. Default                     : Yes
  133. Forced                      : Yes
  134.  
  135. Text #4
  136. ID                          : 7
  137. Format                      : UTF-8
  138. Codec ID                    : S_TEXT/UTF8
  139. Codec ID/Info               : UTF-8 Plain Text
  140. Duration                    : 1 h 37 min
  141. Bit rate                    : 58 b/s
  142. Count of elements           : 1379
  143. Stream size                 : 41.9 KiB (0%)
  144. Title                       : French
  145. Language                    : French
  146. Default                     : No
  147. Forced                      : No
  148.  
  149. Text #5
  150. ID                          : 8
  151. Format                      : UTF-8
  152. Codec ID                    : S_TEXT/UTF8
  153. Codec ID/Info               : UTF-8 Plain Text
  154. Duration                    : 1 h 37 min
  155. Bit rate                    : 55 b/s
  156. Count of elements           : 1410
  157. Stream size                 : 39.6 KiB (0%)
  158. Title                       : Brazilian Portuguese
  159. Language                    : Portuguese
  160. Default                     : No
  161. Forced                      : No
  162.  
  163. Text #6
  164. ID                          : 9
  165. Format                      : UTF-8
  166. Codec ID                    : S_TEXT/UTF8
  167. Codec ID/Info               : UTF-8 Plain Text
  168. Duration                    : 1 h 34 min
  169. Bit rate                    : 0 b/s
  170. Count of elements           : 25
  171. Stream size                 : 676 Bytes (0%)
  172. Title                       : Spanish
  173. Language                    : Spanish
  174. Default                     : No
  175. Forced                      : No
RAW Paste Data
We use cookies for various purposes including analytics. By continuing to use Pastebin, you agree to our use of cookies as described in the Cookies Policy. OK, I Understand
 
Top