SHARE
TWEET

Untitled

a guest Jul 17th, 2017 57 Never
Not a member of Pastebin yet? Sign Up, it unlocks many cool features!
  1. General
  2.  
  3. Complete name                    : /home/dwagonfwy/Videos/What Dreams May Come.mkv
  4.  
  5. Format                           : Matroska
  6.  
  7. File size                        : 4.37 GiB
  8.  
  9. Duration                         : 5h 4mn
  10.  
  11. Overall bit rate                 : 2 054 Kbps
  12.  
  13. Encoded date                     : UTC 2007-08-07 19:46:11
  14.  
  15. Writing application              : mkvmerge v2.0.2 ('You're My Flame') built on Feb 21 2007 23:40:55
  16.  
  17. Writing library                  : libebml v0.7.7 + libmatroska v0.8.1
  18.  
  19.  
  20.  
  21. Video
  22.  
  23. ID                               : 1
  24.  
  25. Format                           : AVC
  26.  
  27. Format/Info                      : Advanced Video Codec
  28.  
  29. Format profile                   : High@L5.1
  30.  
  31. Format settings, CABAC           : Yes
  32.  
  33. Format settings, ReFrames        : 8 frames
  34.  
  35. Muxing mode                      : Container profile=Unknown@5.1
  36.  
  37. Codec ID                         : V_MPEG4/ISO/AVC
  38.  
  39. Duration                         : 5h 4mn
  40.  
  41. Bit rate                         : 1 373 Kbps
  42.  
  43. Nominal bit rate                 : 4 863 Kbps
  44.  
  45. Width                            : 1 280 pixels
  46.  
  47. Height                           : 528 pixels
  48.  
  49. Display aspect ratio             : 2.40:1
  50.  
  51. Frame rate                       : 23.976 fps
  52.  
  53. Color space                      : YUV
  54.  
  55. Chroma subsampling               : 4:2:0
  56.  
  57. Bit depth                        : 8 bits
  58.  
  59. Scan type                        : Progressive
  60.  
  61. Bits/(Pixel*Frame)               : 0.085
  62.  
  63. Stream size                      : 2.92 GiB (67%)
  64.  
  65. Writing library                  : x264 core 56 svn-667C
  66.  
  67. Encoding settings                : cabac=1 / ref=5 / deblock=1:-4:-4 / analyse=0x3:0x133 / me=umh / subme=6 / brdo=1 / mixed_ref=1 / me_range=16 / chroma_me=1 / trellis=1 / 8x8dct=1 / cqm=2 / deadzone=4,6 / chroma_qp_offset=0 / threads=3 / nr=0 / decimate=1 / mbaff=0 / bframes=3 / b_pyramid=1 / b_adapt=1 / b_bias=0 / direct=3 / wpredb=1 / bime=1 / keyint=250 / keyint_min=25 / scenecut=40(pre) / rc=2pass / bitrate=4863 / ratetol=1.0 / rceq='blurCplx^(1-qComp)' / qcomp=0.60 / qpmin=10 / qpmax=51 / qpstep=4 / cplxblur=20.0 / qblur=0.5 / ip_ratio=1.40 / pb_ratio=1.30 / aq=1:0.3:15.0
  68.  
  69. Language                         : English
  70.  
  71.  
  72.  
  73. Audio
  74.  
  75. ID                               : 2
  76.  
  77. Format                           : AC-3
  78.  
  79. Format/Info                      : Audio Coding 3
  80.  
  81. Mode extension                   : CM (complete main)
  82.  
  83. Codec ID                         : A_AC3
  84.  
  85. Duration                         : 5h 4mn
  86.  
  87. Bit rate mode                    : Constant
  88.  
  89. Bit rate                         : 640 Kbps
  90.  
  91. Channel(s)                       : 6 channels
  92.  
  93. Channel positions                : Front: L C R, Side: L R, LFE
  94.  
  95. Sampling rate                    : 48.0 KHz
  96.  
  97. Bit depth                        : 16 bits
  98.  
  99. Stream size                      : 1.36 GiB (31%)
  100.  
  101. Language                         : English
  102.  
  103.  
  104.  
  105. Text
  106.  
  107. ID                               : 3
  108.  
  109. Format                           : UTF-8
  110.  
  111. Codec ID                         : S_TEXT/UTF8
  112.  
  113. Codec ID/Info                    : UTF-8 Plain Text
  114.  
  115. Language                         : English
RAW Paste Data
Pastebin PRO Summer Special!
Get 60% OFF on Pastebin PRO accounts!
Top