SHARE
TWEET

Untitled

a guest Sep 17th, 2019 97 Never
Not a member of Pastebin yet? Sign Up, it unlocks many cool features!
  1. Общее
  2. Уникальный идентификатор                 : 228674946202229175192799605297284933559 (0xAC093150FFD29425AB849C9D589067B7)
  3. Полное имя                               : E:\Downloads\Bezumnyie.roditeli.2017.1080p.BluRay.x264.ELEKTRI4KA.UNIONGANG.mkv
  4. Формат                                   : Matroska
  5. Версия формата                           : Version 4
  6. Размер файла                             : 11,7 Гбайт
  7. Продолжительность                        : 1 ч. 24 м.
  8. Общий поток                              : 19,9 Мбит/сек
  9. Дата кодирования                         : UTC 2019-09-15 23:01:52
  10. Программа кодирования                    : mkvmerge v37.0.0 ('Leave It') 64-bit
  11. Библиотека кодирования                   : libebml v1.3.9 + libmatroska v1.5.2
  12.  
  13. Видео
  14. Идентификатор                            : 1
  15. Формат                                   : AVC
  16. Формат/Информация                        : Advanced Video Codec
  17. Профиль формата                          : High@L4.1
  18. Настройки формата                        : CABAC / 5 Ref Frames
  19. Параметр CABAC формата                   : Да
  20. Параметр RefFrames формата               : 5 кадров
  21. Идентификатор кодека                     : V_MPEG4/ISO/AVC
  22. Продолжительность                        : 1 ч. 23 м.
  23. Битрейт                                  : 18,2 Мбит/сек
  24. Ширина                                   : 1920 пикселей
  25. Высота                                   : 800 пикселей
  26. Соотношение сторон                       : 2,40:1
  27. Режим частоты кадров                     : Постоянный
  28. Частота кадров                           : 23,976 (24000/1001) кадра/сек
  29. Цветовое пространство                    : YUV
  30. Субдискретизация насыщенности            : 4:2:0
  31. Битовая глубина                          : 8 бит
  32. Тип развёртки                            : Прогрессивная
  33. Бит/(Пиксели*Кадры)                      : 0.495
  34. Размер потока                            : 10,6 Гбайт (90%)
  35. Заголовок                                : ELEKTRI4KA.UNIONGANG
  36. Библиотека кодирования                   : x264 core 155 r2867+74 66b5600 t_mod_Custom_2 [8-bit@all X86_64]
  37. Настройки программы                      : cabac=1 / ref=5 / deblock=1:-3:-3 / analyse=0x3:0x133 / me=umh / subme=10 / psy=1 / fade_compensate=0.00 / psy_rd=1.00:0.00 / mixed_ref=1 / me_range=48 / chroma_me=1 / trellis=2 / 8x8dct=1 / cqm=0 / deadzone=21,11 / fast_pskip=0 / chroma_qp_offset=-2 / threads=24 / lookahead_threads=4 / sliced_threads=0 / nr=0 / decimate=0 / interlaced=0 / bluray_compat=0 / constrained_intra=0 / fgo=0 / bframes=8 / b_pyramid=2 / b_adapt=2 / b_bias=0 / direct=3 / weightb=1 / open_gop=0 / weightp=2 / keyint=250 / keyint_min=23 / scenecut=40 / intra_refresh=0 / rc_lookahead=60 / rc=crf / mbtree=0 / crf=16.7000 / qcomp=0.65 / qpmin=0:0:0 / qpmax=69:69:69 / qpstep=4 / vbv_maxrate=62500 / vbv_bufsize=78125 / crf_max=0.0 / nal_hrd=none / filler=0 / ip_ratio=1.30 / pb_ratio=1.20 / aq=3:0.75 / aq-sensitivity=10.00 / aq-factor=1.00:1.00:1.00 / aq2=0 / aq3=0
  38. Язык                                     : English
  39. Default                                  : Да
  40. Forced                                   : Нет
  41.  
  42. Аудио #1
  43. Идентификатор                            : 2
  44. Формат                                   : AC-3
  45. Формат/Информация                        : Audio Coding 3
  46. Коммерческое название                    : Dolby Digital
  47. Идентификатор кодека                     : A_AC3
  48. Продолжительность                        : 1 ч. 24 м.
  49. Вид битрейта                             : Постоянный
  50. Битрейт                                  : 384 Кбит/сек
  51. Каналы                                   : 6 каналов
  52. Channel layout                           : L R C LFE Ls Rs
  53. Частота                                  : 48,0 КГц
  54. Частота кадров                           : 31,250 кадров/сек (1536 SPF)
  55. Битовая глубина                          : 16 бит
  56. Метод сжатия                             : С потерями
  57. Размер потока                            : 231 Мбайт (2%)
  58. Заголовок                                : iTunes
  59. Язык                                     : Russian
  60. ServiceKind/String                       : Complete Main
  61. Default                                  : Да
  62. Forced                                   : Нет
  63.  
  64. Аудио #2
  65. Идентификатор                            : 3
  66. Формат                                   : DTS
  67. Формат/Информация                        : Digital Theater Systems
  68. Идентификатор кодека                     : A_DTS
  69. Продолжительность                        : 1 ч. 23 м.
  70. Вид битрейта                             : Постоянный
  71. Битрейт                                  : 1509 Кбит/сек
  72. Каналы                                   : 6 каналов
  73. Channel layout                           : C L R Ls Rs LFE
  74. Частота                                  : 48,0 КГц
  75. Частота кадров                           : 93,750 кадра/сек (512 SPF)
  76. Битовая глубина                          : 24 бит
  77. Метод сжатия                             : С потерями
  78. Размер потока                            : 897 Мбайт (7%)
  79. Язык                                     : English
  80. Default                                  : Нет
  81. Forced                                   : Нет
  82.  
  83. Текст
  84. Идентификатор                            : 4
  85. Формат                                   : PGS
  86. Режим смешивания                         : zlib
  87. Идентификатор кодека                     : S_HDMV/PGS
  88. Идентификатор кодека/Информация          : Picture based subtitle format used on BDs/HD-DVDs
  89. Продолжительность                        : 1 ч. 21 м.
  90. Битрейт                                  : 42,9 Кбит/сек
  91. ElementCount                             : 2490
  92. Размер потока                            : 25,0 Мбайт (0%)
  93. Язык                                     : English
  94. Default                                  : Нет
  95. Forced                                   : Нет
  96.  
  97. Меню
  98. 00:00:00.000                             : en:00:00:00.000
  99. 00:05:28.453                             : en:00:05:28.453
  100. 00:09:51.716                             : en:00:09:51.716
  101. 00:15:20.670                             : en:00:15:20.670
  102. 00:22:28.472                             : en:00:22:28.472
  103. 00:27:57.551                             : en:00:27:57.551
  104. 00:30:54.269                             : en:00:30:54.269
  105. 00:35:19.117                             : en:00:35:19.117
  106. 00:43:08.711                             : en:00:43:08.711
  107. 00:49:54.366                             : en:00:49:54.366
  108. 00:53:17.111                             : en:00:53:17.111
  109. 00:58:29.881                             : en:00:58:29.881
  110. 01:04:59.896                             : en:01:04:59.896
  111. 01:10:55.334                             : en:01:10:55.334
  112. 01:15:05.751                             : en:01:15:05.751
  113. 01:19:18.420                             : en:01:19:18.420
RAW Paste Data
We use cookies for various purposes including analytics. By continuing to use Pastebin, you agree to our use of cookies as described in the Cookies Policy. OK, I Understand
 
Top