Guest User

Untitled

a guest
Nov 16th, 2019
107
Never
Not a member of Pastebin yet? Sign Up, it unlocks many cool features!
  1. General
  2. Unique ID : 224095879601303256754586998545601349893 (0xA8974BE7046F9131A957CD58CDC54905)
  3. Complete name : This.Is.Not.Berlin.2019.1080p.AMZN.WEB-DL.DDP5.1.H.264-NTG.mkv
  4. Format : Matroska
  5. Format version : Version 4
  6. File size : 6.67 GiB
  7. Duration : 1 h 52 min
  8. Overall bit rate : 8 504 kb/s
  9. Encoded date : UTC 2019-11-15 09:18:57
  10. Writing application : mkvmerge v21.0.0 ('Tardigrades Will Inherit The Earth') 64-bit
  11. Writing library : libebml v1.3.5 + libmatroska v1.4.8
  12.  
  13. Video
  14. ID : 1
  15. Format : AVC
  16. Format/Info : Advanced Video Codec
  17. Format profile : High@L4
  18. Format settings : CABAC / 4 Ref Frames
  19. Format settings, CABAC : Yes
  20. Format settings, Reference frames : 4 frames
  21. Codec ID : V_MPEG4/ISO/AVC
  22. Duration : 1 h 52 min
  23. Bit rate mode : Constant
  24. Bit rate : 7 862 kb/s
  25. Nominal bit rate : 10 000 kb/s
  26. Width : 1 920 pixels
  27. Height : 1 040 pixels
  28. Display aspect ratio : 1.85:1
  29. Frame rate mode : Constant
  30. Frame rate : 23.976 (24000/1001) FPS
  31. Color space : YUV
  32. Chroma subsampling : 4:2:0
  33. Bit depth : 8 bits
  34. Scan type : Progressive
  35. Bits/(Pixel*Frame) : 0.164
  36. Stream size : 6.16 GiB (92%)
  37. Default : Yes
  38. Forced : No
  39. Color range : Limited
  40. Color primaries : BT.709
  41. Transfer characteristics : BT.709
  42. Matrix coefficients : BT.709
  43.  
  44. Audio
  45. ID : 2
  46. Format : E-AC-3
  47. Format/Info : Enhanced AC-3
  48. Commercial name : Dolby Digital Plus
  49. Codec ID : A_EAC3
  50. Duration : 1 h 52 min
  51. Bit rate mode : Constant
  52. Bit rate : 640 kb/s
  53. Channel(s) : 6 channels
  54. Channel layout : L R C LFE Ls Rs
  55. Sampling rate : 48.0 kHz
  56. Frame rate : 31.250 FPS (1536 SPF)
  57. Compression mode : Lossy
  58. Stream size : 514 MiB (8%)
  59. Language : Spanish
  60. Service kind : Complete Main
  61. Default : Yes
  62. Forced : No
  63.  
  64. Text #1
  65. ID : 3
  66. Format : UTF-8
  67. Codec ID : S_TEXT/UTF8
  68. Codec ID/Info : UTF-8 Plain Text
  69. Duration : 1 h 42 min
  70. Bit rate : 37 b/s
  71. Count of elements : 852
  72. Stream size : 28.0 KiB (0%)
  73. Language : English
  74. Default : No
  75. Forced : No
  76.  
  77. Text #2
  78. ID : 4
  79. Format : UTF-8
  80. Codec ID : S_TEXT/UTF8
  81. Codec ID/Info : UTF-8 Plain Text
  82. Duration : 1 h 42 min
  83. Bit rate : 37 b/s
  84. Count of elements : 852
  85. Stream size : 28.0 KiB (0%)
  86. Title : SDH
  87. Language : English
  88. Default : No
  89. Forced : No
RAW Paste Data