SHARE
TWEET

Untitled

a guest Jul 18th, 2014 219 Never
Not a member of Pastebin yet? Sign Up, it unlocks many cool features!
  1. HandBrake 0.9.9.5530 - 64bit Version
  2. OS: Microsoft Windows NT 6.1.7601 Service Pack 1
  3. CPU: Intel(R) Core(TM) i3 CPU       M 370  @ 2.40GHz
  4. Ram: 3766 MB, Screen: 1366x768
  5. Temp Dir: C:\Users\Gordon\AppData\Local\Temp\
  6. Install Dir: C:\Program Files\Handbrake
  7. Data Dir: C:\Users\Gordon\AppData\Roaming\HandBrake\HandBrake\0.9.9.5530
  8.  
  9. -------------------------------------------
  10.  -i "C:\Users\Gordon\Desktop\france july 2014.wmv" -t0  --min-duration=10 -v
  11. [10:45:53] hb_init: starting libhb thread
  12. HandBrake 0.9.9 (2013052900) - MinGW x86_64 - http://handbrake.fr
  13. 4 CPUs detected
  14. Opening C:\Users\Gordon\Desktop\france july 2014.wmv...
  15. [10:45:53] hb_scan: path=C:\Users\Gordon\Desktop\france july 2014.wmv, title_index=0
  16. libbluray/bdnav/index_parse.c:162: indx_parse(): error opening C:\Users\Gordon\Desktop\france july 2014.wmv/BDMV/index.bdmv
  17. libbluray/bdnav/index_parse.c:162: indx_parse(): error opening C:\Users\Gordon\Desktop\france july 2014.wmv/BDMV/BACKUP/index.bdmv
  18. libbluray/bluray.c:1725: nav_get_title_list(C:\Users\Gordon\Desktop\france july 2014.wmv) failed (000000000208B260)
  19. [10:45:53] bd: not a bd - trying as a stream/file instead
  20. libdvdnav: Using dvdnav version 4.1.3
  21. libdvdread: Encrypted DVD support unavailable.
  22. libdvdnav:DVDOpenFileUDF:UDFFindFile /VIDEO_TS/VIDEO_TS.IFO failed
  23. libdvdnav:DVDOpenFileUDF:UDFFindFile /VIDEO_TS/VIDEO_TS.BUP failed
  24. libdvdread: Can't open file VIDEO_TS.IFO.
  25. libdvdnav: vm: failed to read VIDEO_TS.IFO
  26. [10:45:53] dvd: not a dvd - trying as a stream/file instead
  27. Input #0, asf, from 'C:\Users\Gordon\Desktop\france july 2014.wmv':
  28.   Metadata:
  29.     WMFSDKVersion   : 12.0.7601.17514
  30.     WMFSDKNeeded    : 0.0.0.0000
  31.     IsVBR           : 0
  32.   Duration: 00:08:05.75, start: 0.000000, bitrate: 5040 kb/s
  33.     Stream #0.0: Video: mjpeg, yuvj420p, 854x480, 90k tbn
  34.     Metadata:
  35.       comment         : Movie/video screen capture
  36.     Stream #0.1(eng): Audio: wmav2, 48000 Hz, 2 channels, fltp, 192 kb/s
  37.     Stream #0.2(eng): Video: wmv3 (Main), yuv420p, 854x480, 5500 kb/s, 29.97 fps, 29.97 tbr, 1k tbn
  38. [10:45:53] scan: decoding previews for title 1
  39. [10:45:53] scan: audio 0x1: wmav2, rate=48000Hz, bitrate=192000 English (wmav2) (2.0 ch)
  40. [10:45:53] scan: 10 previews, 854x480, 23.976 fps, autocrop = 0/0/0/0, aspect 16:9, PAR 1:1
  41. + title 1:
  42.   + stream: C:\Users\Gordon\Desktop\france july 2014.wmv
  43.   + duration: 00:08:05
  44.   + size: 854x480, pixel aspect: 1/1, display aspect: 1.78, 23.976 fps
  45.   + autocrop: 0/0/0/0
  46.   + chapters:
  47.     + 1: cells 0->0, 0 blocks, duration 00:08:05
  48.   + audio tracks:
  49.     + 1, English (wmav2) (2.0 ch) (iso639-2: eng)
  50.   + subtitle tracks:
  51. HandBrake has exited.
RAW Paste Data
We use cookies for various purposes including analytics. By continuing to use Pastebin, you agree to our use of cookies as described in the Cookies Policy. OK, I Understand
Top