SHARE
TWEET

[rinimonyka] Tawawa on Monday - 01 [720p] [069E21F5][Blue Cazande].mkv

HYBRID_BEING Oct 20th, 2016 60 Never
Not a member of Pastebin yet? Sign Up, it unlocks many cool features!
  1. General
  2. Unique ID                                : 219432405186631588569478864537170414661 (0xA51524DCA54615A0B185DDAC75570C45)
  3. Complete name                            : [rinimonyka] Tawawa on Monday - 01 [720p] [069E21F5][Blue Cazande].mkv
  4. Format                                   : Matroska
  5. Format version                           : Version 4 / Version 2
  6. File size                                : 20.8 MiB
  7. Duration                                 : 4mn 37s
  8. Overall bit rate                         : 629 Kbps
  9. Encoded date                             : UTC 2016-10-10 16:03:29
  10. Writing application                      : mkvmerge v7.7.0 ('Six Voices') 32bit built on Feb 28 2015 23:23:00
  11. Writing library                          : libebml v1.3.1 + libmatroska v1.4.2
  12. Attachments                              : CABIN-REGULAR.TTF
  13.  
  14. Video
  15. ID                                       : 3
  16. Format                                   : AVC
  17. Format/Info                              : Advanced Video Codec
  18. Format profile                           : High@L3.1
  19. Format settings, CABAC                   : Yes
  20. Format settings, ReFrames                : 5 frames
  21. Codec ID                                 : V_MPEG4/ISO/AVC
  22. Duration                                 : 4mn 37s
  23. Bit rate                                 : 496 Kbps
  24. Width                                    : 1 280 pixels
  25. Height                                   : 720 pixels
  26. Display aspect ratio                     : 16:9
  27. Frame rate mode                          : Constant
  28. Frame rate                               : 25.000 fps
  29. Color space                              : YUV
  30. Chroma subsampling                       : 4:2:0
  31. Bit depth                                : 8 bits
  32. Scan type                                : Progressive
  33. Bits/(Pixel*Frame)                       : 0.022
  34. Stream size                              : 16.4 MiB (79%)
  35. Writing library                          : x264 core 148
  36. Encoding settings                        : cabac=1 / ref=5 / deblock=1:0:0 / analyse=0x3:0x113 / me=hex / subme=7 / psy=0 / mixed_ref=1 / me_range=16 / chroma_me=1 / trellis=1 / 8x8dct=1 / cqm=0 / deadzone=21,11 / fast_pskip=1 / chroma_qp_offset=0 / threads=22 / lookahead_threads=3 / sliced_threads=0 / nr=0 / decimate=1 / interlaced=0 / bluray_compat=0 / constrained_intra=0 / bframes=3 / b_pyramid=2 / b_adapt=1 / b_bias=0 / direct=1 / weightb=1 / open_gop=0 / weightp=2 / keyint=90 / keyint_min=9 / scenecut=40 / intra_refresh=0 / rc_lookahead=40 / rc=crf / mbtree=1 / crf=27.0 / qcomp=0.60 / qpmin=0 / qpmax=69 / qpstep=4 / vbv_maxrate=2500 / vbv_bufsize=5000 / crf_max=0.0 / nal_hrd=none / filler=0 / ip_ratio=1.40 / aq=2:1.00
  37. Default                                  : Yes
  38. Forced                                   : No
  39.  
  40. Audio
  41. ID                                       : 2
  42. Format                                   : AAC
  43. Format/Info                              : Advanced Audio Codec
  44. Format profile                           : LC
  45. Codec ID                                 : A_AAC
  46. Duration                                 : 4mn 37s
  47. Bit rate                                 : 126 Kbps
  48. Channel(s)                               : 2 channels
  49. Channel positions                        : Front: L R
  50. Sampling rate                            : 44.1 KHz
  51. Frame rate                               : 43.066 fps (1024 spf)
  52. Compression mode                         : Lossy
  53. Stream size                              : 4.15 MiB (20%)
  54. Default                                  : Yes
  55. Forced                                   : No
  56.  
  57. Text
  58. ID                                       : 1
  59. Format                                   : ASS
  60. Codec ID                                 : S_TEXT/ASS
  61. Codec ID/Info                            : Advanced Sub Station Alpha
  62. Duration                                 : 3mn 22s
  63. Bit rate                                 : 127 bps
  64. Count of elements                        : 48
  65. Compression mode                         : Lossless
  66. Stream size                              : 3.15 KiB (0%)
  67. Default                                  : Yes
  68. Forced                                   : No
RAW Paste Data
We use cookies for various purposes including analytics. By continuing to use Pastebin, you agree to our use of cookies as described in the Cookies Policy. OK, I Understand
Top