Guest User

Untitled

a guest
Jun 11th, 2014
300
Never
Not a member of Pastebin yet? Sign Up, it unlocks many cool features!
  1. General
  2. Devils.Knot.2013.Blu.Ray.720p.CINEMANIA.mkv
  3. Format : Matroska
  4. Format version : Version 4 / Version 2
  5. File size : 6.71 GiB
  6. Duration : 1h 54mn
  7. Overall bit rate : 8 407 Kbps
  8. Movie name : Release Group CINEMANIA
  9. Encoded date : UTC 2014-06-11 16:22:11
  10. Writing application : mkvmerge v7.0.0 ('Where We Going') 64bit built on Jun 9 2014 15:16:27
  11. Writing library : libebml v1.3.0 + libmatroska v1.4.1
  12.  
  13. Video
  14. ID : 1
  15. Format : AVC
  16. Format/Info : Advanced Video Codec
  17. Format profile : High@L4.1
  18. Format settings, CABAC : Yes
  19. Format settings, ReFrames : 9 frames
  20. Codec ID : V_MPEG4/ISO/AVC
  21. Duration : 1h 54mn
  22. Bit rate : 5 643 Kbps
  23. Width : 1 280 pixels
  24. Height : 718 pixels
  25. Display aspect ratio : 16:9
  26. Frame rate mode : Constant
  27. Frame rate : 23.976 fps
  28. Color space : YUV
  29. Chroma subsampling : 4:2:0
  30. Bit depth : 8 bits
  31. Scan type : Progressive
  32. Bits/(Pixel*Frame) : 0.256
  33. Stream size : 4.50 GiB (67%)
  34. Title : Release Group CINEMANIA
  35. Writing library : x264 core 142 r2431kMod ac76440
  36. Encoding settings : cabac=1 / ref=9 / deblock=1:-3:-3 / analyse=0x3:0x133 / me=umh / subme=10 / psy=1 / fade_compensate=0.00 / psy_rd=1.00:0.00 / mixed_ref=1 / me_range=32 / chroma_me=1 / trellis=2 / 8x8dct=1 / cqm=0 / deadzone=21,11 / fast_pskip=0 / chroma_qp_offset=-2 / threads=12 / lookahead_threads=2 / sliced_threads=0 / nr=0 / decimate=0 / interlaced=0 / bluray_compat=0 / constrained_intra=0 / fgo=0 / bframes=9 / b_pyramid=2 / b_adapt=2 / b_bias=0 / direct=3 / weightb=1 / open_gop=0 / weightp=2 / keyint=250 / keyint_min=23 / scenecut=40 / intra_refresh=0 / rc_lookahead=60 / rc=crf / mbtree=0 / crf=15.0000 / qcomp=0.60 / qpmin=0 / qpmax=69 / qpstep=4 / vbv_maxrate=62500 / vbv_bufsize=78125 / crf_max=0.0 / nal_hrd=none / filler=0 / ip_ratio=1.30 / pb_ratio=1.20 / aq=1:0.85
  37. Language : English
  38. Default : Yes
  39. Forced : No
  40. Color primaries : BT.709
  41. Transfer characteristics : BT.709
  42. Matrix coefficients : BT.709
  43.  
  44. Audio #1
  45. ID : 2
  46. Format : DTS
  47. Format/Info : Digital Theater Systems
  48. Mode : 16
  49. Format settings, Endianness : Big
  50. Codec ID : A_DTS
  51. Duration : 1h 54mn
  52. Bit rate mode : Constant
  53. Bit rate : 1 509 Kbps
  54. Channel(s) : 6 channels
  55. Channel positions : Front: L C R, Side: L R, LFE
  56. Sampling rate : 48.0 KHz
  57. Bit depth : 24 bits
  58. Compression mode : Lossy
  59. Stream size : 1.20 GiB (18%)
  60. Title : С.Визгунов
  61. Language : Russian
  62. Default : Yes
  63. Forced : Yes
  64.  
  65. Audio #2
  66. ID : 3
  67. Format : AC-3
  68. Format/Info : Audio Coding 3
  69. Mode extension : CM (complete main)
  70. Format settings, Endianness : Big
  71. Codec ID : A_AC3
  72. Duration : 1h 54mn
  73. Bit rate mode : Constant
  74. Bit rate : 448 Kbps
  75. Channel(s) : 6 channels
  76. Channel positions : Front: L C R, Side: L R, LFE
  77. Sampling rate : 48.0 KHz
  78. Bit depth : 16 bits
  79. Compression mode : Lossy
  80. Stream size : 366 MiB (5%)
  81. Title : С.Визгунов
  82. Language : Russian
  83. Default : No
  84. Forced : No
  85.  
  86. Audio #3
  87. ID : 4
  88. Format : AC-3
  89. Format/Info : Audio Coding 3
  90. Mode extension : CM (complete main)
  91. Format settings, Endianness : Big
  92. Codec ID : A_AC3
  93. Duration : 1h 54mn
  94. Bit rate mode : Constant
  95. Bit rate : 640 Kbps
  96. Channel(s) : 6 channels
  97. Channel positions : Front: L C R, Side: L R, LFE
  98. Sampling rate : 48.0 KHz
  99. Bit depth : 16 bits
  100. Compression mode : Lossy
  101. Stream size : 523 MiB (8%)
  102. Language : English
  103. Default : No
  104. Forced : No
  105.  
  106. Text
  107. ID : 5
  108. Format : UTF-8
  109. Codec ID : S_TEXT/UTF8
  110. Codec ID/Info : UTF-8 Plain Text
  111. Language : English
  112. Default : No
  113. Forced : No
  114.  
  115. Menu
  116. 00:00:00.000 : en:00:00:00.000
  117. 00:08:30.677 : en:00:08:30.677
  118. 00:18:31.610 : en:00:18:31.610
  119. 00:28:47.017 : en:00:28:47.017
  120. 00:39:43.256 : en:00:39:43.256
  121. 00:47:33.851 : en:00:47:33.851
  122. 00:55:14.394 : en:00:55:14.394
  123. 01:05:13.076 : en:01:05:13.076
  124. 01:15:08.003 : en:01:15:08.003
  125. 01:25:55.859 : en:01:25:55.859
  126. 01:39:17.326 : en:01:39:17.326
  127. 01:47:54.301 : en:01:47:54.301
RAW Paste Data