SHARE
TWEET

How To Train Your Dragon BluRay 720p

dirtyharrys Apr 21st, 2019 78 Never
Not a member of Pastebin yet? Sign Up, it unlocks many cool features!
  1. General
  2. Unique ID                   : 42721741340611116214237511837022386861 (0x2023E878BEC2B576CF72DA7954C37AAD)
  3. Complete name               : E:\QlJSSG93VG9UcmFpbllvdXJEcmFnb24.mkv
  4. Format                      : Matroska
  5. Format version              : Version 4
  6. File size                   : 1.64 GiB
  7. Duration                    : 1 h 37 min
  8. Overall bit rate            : 2 397 kb/s
  9. Movie name                  : How To Train Your Dragon BR-RIP / How To Train Your Dragon BR-RIP
  10. Encoded date                : UTC 2019-04-17 07:48:29
  11. Writing application         : mkvmerge v30.1.0 ('Forever And More') 32-bit
  12. Writing library             : libebml v1.3.6 + libmatroska v1.4.9
  13. Copyright                   : Movies HDs 2019
  14. ARTIST                      : HarshLearner
  15.  
  16. Video
  17. ID                          : 1
  18. Format                      : AVC
  19. Format/Info                 : Advanced Video Codec
  20. Format profile              : High@L4.1
  21. Format settings             : CABAC / 4 Ref Frames
  22. Format settings, CABAC      : Yes
  23. Format settings, ReFrames   : 4 frames
  24. Codec ID                    : V_MPEG4/ISO/AVC
  25. Duration                    : 1 h 37 min
  26. Bit rate                    : 1 500 kb/s
  27. Width                       : 1 280 pixels
  28. Height                      : 544 pixels
  29. Display aspect ratio        : 2.35:1
  30. Frame rate mode             : Constant
  31. Frame rate                  : 23.976 (23976/1000) FPS
  32. Color space                 : YUV
  33. Chroma subsampling          : 4:2:0
  34. Bit depth                   : 8 bits
  35. Scan type                   : Progressive
  36. Bits/(Pixel*Frame)          : 0.090
  37. Stream size                 : 1.03 GiB (63%)
  38. Title                       : How To Train Your Dragon
  39. Writing library             : x264 core 152 r2851M ba24899
  40. Default                     : Yes
  41. Forced                      : No
  42.  
  43. Audio #1
  44. ID                          : 2
  45. Format                      : AC-3
  46. Format/Info                 : Audio Coding 3
  47. Commercial name             : Dolby Digital
  48. Codec ID                    : A_AC3
  49. Duration                    : 1 h 37 min
  50. Bit rate mode               : Constant
  51. Bit rate                    : 448 kb/s
  52. Channel(s)                  : 6 channels
  53. Channel layout              : L R C LFE Ls Rs
  54. Sampling rate               : 48.0 kHz
  55. Frame rate                  : 31.250 FPS (1536 SPF)
  56. Bit depth                   : 16 bits
  57. Compression mode            : Lossy
  58. Stream size                 : 314 MiB (19%)
  59. Language                    : English
  60. Service kind                : Complete Main
  61. Default                     : No
  62. Forced                      : No
  63.  
  64. Audio #2
  65. ID                          : 3
  66. Format                      : AC-3
  67. Format/Info                 : Audio Coding 3
  68. Commercial name             : Dolby Digital
  69. Codec ID                    : A_AC3
  70. Duration                    : 1 h 37 min
  71. Bit rate mode               : Constant
  72. Bit rate                    : 448 kb/s
  73. Channel(s)                  : 6 channels
  74. Channel layout              : L R C LFE Ls Rs
  75. Sampling rate               : 48.0 kHz
  76. Frame rate                  : 31.250 FPS (1536 SPF)
  77. Bit depth                   : 16 bits
  78. Compression mode            : Lossy
  79. Delay relative to video     : 1 s 0 ms
  80. Stream size                 : 314 MiB (19%)
  81. Language                    : Spanish
  82. Service kind                : Complete Main
  83. Default                     : Yes
  84. Forced                      : Yes
  85.  
  86. Text #1
  87. ID                          : 4
  88. Format                      : UTF-8
  89. Codec ID                    : S_TEXT/UTF8
  90. Codec ID/Info               : UTF-8 Plain Text
  91. Duration                    : 1 h 28 min
  92. Bit rate                    : 45 b/s
  93. Count of elements           : 866
  94. Stream size                 : 29.1 KiB (0%)
  95. Language                    : English
  96. Default                     : No
  97. Forced                      : No
  98.  
  99. Text #2
  100. ID                          : 5
  101. Format                      : UTF-8
  102. Codec ID                    : S_TEXT/UTF8
  103. Codec ID/Info               : UTF-8 Plain Text
  104. Duration                    : 1 h 28 min
  105. Bit rate                    : 48 b/s
  106. Count of elements           : 872
  107. Stream size                 : 31.3 KiB (0%)
  108. Language                    : Spanish
  109. Default                     : Yes
  110. Forced                      : Yes
  111.  
  112. Menu
  113. 00:00:00.000                : :Chapter 01
  114. 00:08:39.811                : :Chapter 02
  115. 00:11:31.983                : :Chapter 03
  116. 00:15:11.035                : :Chapter 04
  117. 00:21:57.107                : :Chapter 05
  118. 00:27:41.702                : :Chapter 06
  119. 00:33:14.201                : :Chapter 07
  120. 00:39:07.136                : :Chapter 08
  121. 00:43:28.731                : :Chapter 09
  122. 00:47:08.367                : :Chapter 10
  123. 00:49:47.193                : :Chapter 11
  124. 00:59:55.801                : :Chapter 12
  125. 01:04:47.383                : :Chapter 13
  126. 01:09:28.164                : :Chapter 14
  127. 01:12:38.187                : :Chapter 15
  128. 01:23:26.043                : :Chapter 16
  129. 01:28:54.496                : :Chapter 17
RAW Paste Data
We use cookies for various purposes including analytics. By continuing to use Pastebin, you agree to our use of cookies as described in the Cookies Policy. OK, I Understand
 
Top