daily pastebin goal
15%
SHARE
TWEET

Untitled

a guest May 17th, 2015 246 Never
Not a member of Pastebin yet? Sign Up, it unlocks many cool features!
  1. PERFORMER "IOSYS"
  2. TITLE "Touhou Maidens' Orchestra"
  3. FILE "Audio CD.ape" WAVE
  4.   TRACK 01 AUDIO
  5.     TITLE "Bewildering Impending Spiriting Away ~ Border of Death"
  6.     PERFORMER "ARM / 3L"
  7.     INDEX 01 00:00:00
  8.   TRACK 02 AUDIO
  9.     TITLE "Marisa Stole the Precious Thing"
  10.     PERFORMER "ARM / 藤咲かりん"
  11.     INDEX 01 04:43:12
  12.   TRACK 03 AUDIO
  13.     TITLE "Sepia Shanghai tea room"
  14.     PERFORMER "ARM"
  15.     INDEX 01 08:47:12
  16.   TRACK 04 AUDIO
  17.     TITLE "Special Ability for Two People to Sneak Out Into the Moonlit Night"
  18.     PERFORMER "D.wat. / 藤咲かりん"
  19.     INDEX 01 12:14:71
  20.   TRACK 05 AUDIO
  21.     TITLE "Twilight Temple Dream"
  22.     PERFORMER "Ogawa"
  23.     INDEX 01 16:09:02
  24.   TRACK 06 AUDIO
  25.     TITLE "Is Sakuya Izayoi Not Wearing Something?"
  26.     PERFORMER "ノーパン刑事"
  27.     INDEX 01 19:55:54
  28.   TRACK 07 AUDIO
  29.     TITLE "Beloved Girl's Rondo"
  30.     PERFORMER "Arima.Y"
  31.     INDEX 01 22:59:57
  32.   TRACK 08 AUDIO
  33.     TITLE "Keine's Drawing Song"
  34.     PERFORMER "D.wat./あゆ"
  35.     INDEX 01 25:51:20
  36.   TRACK 09 AUDIO
  37.     TITLE "Retrospective Sapporo"
  38.     PERFORMER "D.wat."
  39.     INDEX 01 27:46:21
  40.   TRACK 10 AUDIO
  41.     TITLE "I've Caught You Here For The First Time In Sixty Years"
  42.     PERFORMER "Arima.Y"
  43.     INDEX 01 32:22:59
  44.   TRACK 11 AUDIO
  45.     TITLE "Special Ability Mainly to Manipulate the Floor"
  46.     PERFORMER "ARM"
  47.     INDEX 01 36:33:35
  48.   TRACK 12 AUDIO
  49.     TITLE "Pre-Dawn Chorus Master"
  50.     PERFORMER "Ogawa"
RAW Paste Data
We use cookies for various purposes including analytics. By continuing to use Pastebin, you agree to our use of cookies as described in the Cookies Policy. OK, I Understand
 
Top