Secasa

Untitled

Jun 15th, 2015
43
Never
Not a member of Pastebin yet? Sign Up, it unlocks many cool features!
  1. Format : Matroska
  2. Format version : Version 2
  3. File size : 1.52 GiB
  4. Duration : 1h 33mn
  5. Overall bit rate : 2 336 Kbps
  6. Encoded date : UTC 2015-05-31 14:40:37
  7. Writing application : mkvmerge v5.8.0 ('No Sleep / Pillow') built on Sep 2 2012 15:37:04
  8. Writing library : libebml v1.2.3 + libmatroska v1.3.0
  9. Attachements : cover.jpg / small_cover.jpg
  10.  
  11. Video
  12. ID : 1
  13. Format : AVC
  14. Format/Info : Advanced Video Codec
  15. Format profile : High@L4.1
  16. Format settings, CABAC : Yes
  17. Format settings, ReFrames : 8 frames
  18. Codec ID : V_MPEG4/ISO/AVC
  19. Duration : 1h 33mn
  20. Bit rate : 1 915 Kbps
  21. Width : 1 280 pixels
  22. Height : 528 pixels
  23. Display aspect ratio : 2.40:1
  24. Frame rate mode : Constant
  25. Frame rate : 25.000 fps
  26. Original frame rate : 23.976 fps
  27. Color space : YUV
  28. Chroma subsampling : 4:2:0
  29. Bit depth : 8 bits
  30. Scan type : Progressive
  31. Bits/(Pixel*Frame) : 0.113
  32. Stream size : 1.24 GiB (82%)
  33. Writing library : x264 core 80 r1376M 3feaec2
  34. Encoding settings : cabac=1 / ref=8 / deblock=1:-2:-2 / analyse=0x3:0x113 / me=umh / subme=9 / psy=1 / psy_rd=0.2:0.0 / mixed_ref=1 / me_range=32 / chroma_me=1 / trellis=2 / 8x8dct=1 / cqm=0 / deadzone=21,11 / fast_pskip=0 / chroma_qp_offset=-1 / threads=3 / sliced_threads=0 / slices=2 / nr=0 / decimate=0 / mbaff=0 / constrained_intra=0 / bframes=6 / b_pyramid=2 / b_adapt=2 / b_bias=0 / direct=1 / wpredb=1 / wpredp=2 / keyint=250 / keyint_min=25 / scenecut=40 / rc_lookahead=42 / rc=2pass / mbtree=1 / bitrate=1915 / ratetol=1.0 / qcomp=0.60 / qpmin=10 / qpmax=51 / qpstep=4 / cplxblur=20.0 / qblur=0.5 / ip_ratio=1.40 / aq=1:1.00
  35. Default : Yes
  36. Forced : No
  37.  
  38. Audio
  39. ID : 2
  40. Format : AC-3
  41. Format/Info : Audio Coding 3
  42. Mode extension : CM (complete main)
  43. Format settings, Endianness : Big
  44. Codec ID : A_AC3
  45. Duration : 1h 33mn
  46. Bit rate mode : Constant
  47. Bit rate : 384 Kbps
  48. Channel(s) : 6 channels
  49. Channel positions : Front: L C R, Side: L R, LFE
  50. Sampling rate : 48.0 KHz
  51. Bit depth : 16 bits
  52. Compression mode : Lossy
  53. Delay relative to video : 400ms
  54. Stream size : 256 MiB (16%)
  55. Language : Spanish
  56. Default : Yes
  57. Forced : No
  58.  
  59. Text #1
  60. ID : 3
  61. Format : UTF-8
  62. Codec ID : S_TEXT/UTF8
  63. Codec ID/Info : UTF-8 Plain Text
  64. Language : Spanish
  65. Default : Yes
  66. Forced : No
  67.  
  68. Text #2
  69. ID : 4
  70. Format : UTF-8
  71. Codec ID : S_TEXT/UTF8
  72. Codec ID/Info : UTF-8 Plain Text
  73. Language : Spanish
  74. Default : No
  75. Forced : No
RAW Paste Data