Henry_Kr

Carole

Sep 8th, 2019
150
Never
Not a member of Pastebin yet? Sign Up, it unlocks many cool features!
  1. Video
  2. ID : 1
  3. Format : AVC
  4. Format/Info : Advanced Video Codec
  5. Format profile : Main@L4
  6. Format settings : CABAC / 3 Ref Frames
  7. Format settings, CABAC : Yes
  8. Format settings, Reference : 3 frames
  9. Muxing mode : Header stripping
  10. Codec ID : V_MPEG4/ISO/AVC
  11. Duration : 23 min 47 s
  12. Bit rate mode : Variable
  13. Bit rate : 4 851 kb/s
  14. Nominal bit rate : 5 110 kb/s
  15. Maximum bit rate : 7 665 kb/s
  16. Width : 1 920 pixels
  17. Height : 1 080 pixels
  18. Display aspect ratio : 16:9
  19. Frame rate mode : Constant
  20. Frame rate : 23.976 (24000/1001) FPS
  21. Color space : YUV
  22. Chroma subsampling : 4:2:0
  23. Bit depth : 8 bits
  24. Scan type : Progressive
  25. Bits/(Pixel*Frame) : 0.098
  26. Stream size : 826 MiB (93%)
  27. Title : Carole.And.Tuesday.S01E01.True.Colors.1080p.WEB-DL.[CartoonNOW]
  28. Writing library : x264 core 148 r2715 7e75228
  29. Language : Japanese
  30. Default : Yes
  31. Forced : No
  32.  
  33. Audio #1
  34. ID : 2
  35. Format : E-AC-3
  36. Format/Info : Enhanced AC-3
  37. Commercial name : Dolby Digital Plus
  38. Muxing mode : Header stripping
  39. Codec ID : A_EAC3
  40. Duration : 23 min 47 s
  41. Bit rate mode : Constant
  42. Bit rate : 128 kb/s
  43. Channel(s) : 2 channels
  44. Channel layout : L R
  45. Sampling rate : 48.0 kHz
  46. Frame rate : 31.250 FPS (1536 SPF)
  47. Compression mode : Lossy
  48. Stream size : 21.8 MiB (2%)
  49. Title : E-AC3 2.0
  50. Language : Portuguese
  51. Service kind : Complete Main
  52. Default : Yes
  53. Forced : No
  54.  
  55. Audio #2
  56. ID : 3
  57. Format : E-AC-3
  58. Format/Info : Enhanced AC-3
  59. Commercial name : Dolby Digital Plus
  60. Muxing mode : Header stripping
  61. Codec ID : A_EAC3
  62. Duration : 23 min 47 s
  63. Bit rate mode : Constant
  64. Bit rate : 128 kb/s
  65. Channel(s) : 2 channels
  66. Channel layout : L R
  67. Sampling rate : 48.0 kHz
  68. Frame rate : 31.250 FPS (1536 SPF)
  69. Compression mode : Lossy
  70. Stream size : 21.8 MiB (2%)
  71. Title : E-AC3 2.0
  72. Language : Japanese
  73. Service kind : Complete Main
  74. Default : No
  75. Forced : No
  76.  
  77. Text #1
  78. ID : 4
  79. Format : UTF-8
  80. Codec ID : S_TEXT/UTF8
  81. Codec ID/Info : UTF-8 Plain Text
  82. Title : Forçada
  83. Language : Portuguese
  84. Default : No
  85. Forced : Yes
  86.  
  87. Text #2
  88. ID : 5
  89. Format : UTF-8
  90. Codec ID : S_TEXT/UTF8
  91. Codec ID/Info : UTF-8 Plain Text
  92. Title : Completa
  93. Language : Portuguese
  94. Default : No
  95. Forced : No
RAW Paste Data