GrabHD

Untitled

Feb 28th, 2020
91
Never
Not a member of Pastebin yet? Sign Up, it unlocks many cool features!
  1. General
  2. Unique ID : 271493817505442347940699005383719689339 (0xCC3FCEAA3A5FB59721208BC6B0C29C7B)
  3. Complete name : C:KINOUncut.Gems.2019.BDRip.1080p.by Silverok.mkv
  4. Format : Matroska
  5. Format version : Version 4
  6. File size : 10.4 GiB
  7. Duration : 2 h 15 min
  8. Overall bit rate : 11.1 Mb/s
  9. Movie name : Uncut.Gems.2019.BDRip.1080p.by Silverok
  10. Encoded date : UTC 2020-02-28 15:12:55
  11. Writing application : mkvmerge v43.0.0 ('The Quartermaster') 64-bit
  12. Writing library : libebml v1.3.10 + libmatroska v1.5.2
  13. Cover : Yes
  14. Attachments : cover.png
  15.  
  16. Video
  17. ID : 1
  18. Format : AVC
  19. Format/Info : Advanced Video Codec
  20. Format profile : High@L4.1
  21. Format settings : CABAC / 5 Ref Frames
  22. Format settings, CABAC : Yes
  23. Format settings, Reference frames : 5 frames
  24. Codec ID : V_MPEG4/ISO/AVC
  25. Duration : 2 h 15 min
  26. Bit rate : 8 909 kb/s
  27. Width : 1 920 pixels
  28. Height : 808 pixels
  29. Display aspect ratio : 2.40:1
  30. Frame rate mode : Constant
  31. Frame rate : 23.976 (24000/1001) FPS
  32. Color space : YUV
  33. Chroma subsampling : 4:2:0
  34. Bit depth : 8 bits
  35. Scan type : Progressive
  36. Bits/(Pixel*Frame) : 0.240
  37. Stream size : 8.41 GiB (81%)
  38. Title : BDRip.1080p.by Silverok
  39. Writing library : x264 core 159 r2991 1771b55
  40. Encoding settings : cabac=1 / ref=5 / deblock=1:-2:-2 / analyse=0x3:0x133 / me=umh / subme=8 / psy=1 / psy_rd=1.00:0.00 / mixed_ref=1 / me_range=16 / chroma_me=1 / trellis=2 / 8x8dct=1 / cqm=0 / deadzone=21,11 / fast_pskip=0 / chroma_qp_offset=-2 / threads=24 / lookahead_threads=4 / sliced_threads=0 / nr=0 / decimate=1 / interlaced=0 / bluray_compat=0 / constrained_intra=0 / bframes=3 / b_pyramid=2 / b_adapt=2 / b_bias=0 / direct=3 / weightb=1 / open_gop=0 / weightp=2 / keyint=230 / keyint_min=23 / scenecut=40 / intra_refresh=0 / rc_lookahead=60 / rc=2pass / mbtree=1 / bitrate=8909 / ratetol=1.0 / qcomp=0.60 / qpmin=0 / qpmax=69 / qpstep=4 / cplxblur=20.0 / qblur=0.5 / ip_ratio=1.40 / aq=1:1.00
  41. Default : Yes
  42. Forced : No
  43. Color range : Limited
  44. Matrix coefficients : BT.709
  45.  
  46. Audio #1
  47. ID : 2
  48. Format : AC-3
  49. Format/Info : Audio Coding 3
  50. Commercial name : Dolby Digital
  51. Codec ID : A_AC3
  52. Duration : 2 h 15 min
  53. Bit rate mode : Constant
  54. Bit rate : 640 kb/s
  55. Channel(s) : 6 channels
  56. Channel layout : L R C LFE Ls Rs
  57. Sampling rate : 48.0 kHz
  58. Frame rate : 31.250 FPS (1536 SPF)
  59. Compression mode : Lossy
  60. Stream size : 619 MiB (6%)
  61. Title : Дубляж, Пифагор
  62. Language : Russian
  63. Service kind : Complete Main
  64. Default : Yes
  65. Forced : No
  66.  
  67. Audio #2
  68. ID : 3
  69. Format : DTS
  70. Format/Info : Digital Theater Systems
  71. Codec ID : A_DTS
  72. Duration : 2 h 15 min
  73. Bit rate mode : Constant
  74. Bit rate : 1 509 kb/s
  75. Channel(s) : 6 channels
  76. Channel layout : C L R Ls Rs LFE
  77. Sampling rate : 48.0 kHz
  78. Frame rate : 93.750 FPS (512 SPF)
  79. Bit depth : 24 bits
  80. Compression mode : Lossy
  81. Stream size : 1.42 GiB (14%)
  82. Language : English
  83. Default : No
  84. Forced : No
  85.  
  86. Text #1
  87. ID : 4
  88. Format : UTF-8
  89. Codec ID : S_TEXT/UTF8
  90. Codec ID/Info : UTF-8 Plain Text
  91. Duration : 2 h 14 min
  92. Bit rate : 132 b/s
  93. Count of elements : 2519
  94. Stream size : 131 KiB (0%)
  95. Title : Full
  96. Language : Russian
  97. Default : No
  98. Forced : No
  99.  
  100. Text #2
  101. ID : 5
  102. Format : UTF-8
  103. Codec ID : S_TEXT/UTF8
  104. Codec ID/Info : UTF-8 Plain Text
  105. Duration : 2 h 9 min
  106. Bit rate : 107 b/s
  107. Count of elements : 2584
  108. Stream size : 102 KiB (0%)
  109. Title : Full
  110. Language : English
  111. Default : No
  112. Forced : No
  113.  
  114. Text #3
  115. ID : 6
  116. Format : UTF-8
  117. Codec ID : S_TEXT/UTF8
  118. Codec ID/Info : UTF-8 Plain Text
  119. Duration : 2 h 13 min
  120. Bit rate : 114 b/s
  121. Count of elements : 2730
  122. Stream size : 112 KiB (0%)
  123. Title : SDH
  124. Language : English
  125. Default : No
  126. Forced : No
  127.  
  128. Menu
  129. 00:00:00.000 : en:Chapter 01
  130. 00:08:37.475 : en:Chapter 02
  131. 00:18:26.605 : en:Chapter 03
  132. 00:23:23.277 : en:Chapter 04
  133. 00:31:56.123 : en:Chapter 05
  134. 00:36:06.039 : en:Chapter 06
  135. 00:43:14.342 : en:Chapter 07
  136. 00:51:10.234 : en:Chapter 08
  137. 00:57:30.363 : en:Chapter 09
  138. 01:03:09.035 : en:Chapter 10
  139. 01:11:49.430 : en:Chapter 11
  140. 01:21:41.939 : en:Chapter 12
  141. 01:31:03.291 : en:Chapter 13
  142. 01:42:45.492 : en:Chapter 14
  143. 01:49:37.112 : en:Chapter 15
  144. 02:00:15.333 : en:Chapter 16
RAW Paste Data