SHARE
TWEET

Untitled

a guest Oct 9th, 2015 99 Never
Not a member of Pastebin yet? Sign Up, it unlocks many cool features!
  1. C:\Documents and Settings\Leo\Desktop\ffmpeg-20151008-git-5911eeb-win32-static\b
  2. in>ffmpeg.exe -i erfge.avi -async 1 -i "AudioMUX ITA 2x01.mp3" -c copy -shortest
  3.  out2.avi
  4. ffmpeg version N-75841-g5911eeb Copyright (c) 2000-2015 the FFmpeg developers
  5.   built with gcc 5.2.0 (GCC)
  6.   configuration: --enable-gpl --enable-version3 --disable-w32threads --enable-av
  7. isynth --enable-bzlib --enable-fontconfig --enable-frei0r --enable-gnutls --enab
  8. le-iconv --enable-libass --enable-libbluray --enable-libbs2b --enable-libcaca --
  9. enable-libdcadec --enable-libfreetype --enable-libgme --enable-libgsm --enable-l
  10. ibilbc --enable-libmodplug --enable-libmp3lame --enable-libopencore-amrnb --enab
  11. le-libopencore-amrwb --enable-libopenjpeg --enable-libopus --enable-librtmp --en
  12. able-libschroedinger --enable-libsoxr --enable-libspeex --enable-libtheora --ena
  13. ble-libtwolame --enable-libvidstab --enable-libvo-aacenc --enable-libvo-amrwbenc
  14.  --enable-libvorbis --enable-libvpx --enable-libwavpack --enable-libwebp --enabl
  15. e-libx264 --enable-libx265 --enable-libxavs --enable-libxvid --enable-lzma --ena
  16. ble-decklink --enable-zlib
  17.   libavutil      55.  2.100 / 55.  2.100
  18.   libavcodec     57.  4.100 / 57.  4.100
  19.   libavformat    57.  3.100 / 57.  3.100
  20.   libavdevice    57.  0.100 / 57.  0.100
  21.   libavfilter     6. 10.100 /  6. 10.100
  22.   libswscale      4.  0.100 /  4.  0.100
  23.   libswresample   2.  0.100 /  2.  0.100
  24.   libpostproc    54.  0.100 / 54.  0.100
  25. Input #0, avi, from 'erfge.avi':
  26.   Metadata:
  27.     encoder         : AVI-Mux GUI 1.17.8, Aug 30 2008  12:36:58
  28.     JUNK            :
  29.   Duration: 00:41:38.12, start: 0.000000, bitrate: 993 kb/s
  30.     Stream #0:0: Video: mpeg4 (Advanced Simple Profile) (XVID / 0x44495658), yuv
  31. 420p, 640x352 [SAR 1:1 DAR 20:11], 990 kb/s, 23.98 fps, 23.98 tbr, 23.98 tbn, 23
  32. .98 tbc
  33. [mp3 @ 033c3020] Skipping 0 bytes of junk at 0.
  34. [mp3 @ 033c3020] Estimating duration from bitrate, this may be inaccurate
  35. Input #1, mp3, from 'AudioMUX ITA 2x01.mp3':
  36.   Duration: 00:39:55.77, start: 0.000000, bitrate: 128 kb/s
  37.     Stream #1:0: Audio: mp3, 48000 Hz, stereo, s16p, 128 kb/s
  38. File 'out2.avi' already exists. Overwrite ? [y/N] y
  39. Output #0, avi, to 'out2.avi':
  40.   Metadata:
  41.     JUNK            :
  42.     ISFT            : Lavf57.3.100
  43.     Stream #0:0: Video: mpeg4 (XVID / 0x44495658), yuv420p, 640x352 [SAR 1:1 DAR
  44.  20:11], q=2-31, 990 kb/s, 23.98 fps, 23.98 tbr, 23.98 tbn, 23.98 tbc
  45.     Stream #0:1: Audio: mp3 (U[0][0][0] / 0x0055), 48000 Hz, stereo, 128 kb/s
  46. Stream mapping:
  47.   Stream #0:0 -> #0:0 (copy)
  48.   Stream #1:0 -> #0:1 (copy)
  49. Press [q] to stop, [?] for help
  50. frame= 3288 fps=0.0 q=-1.0 size=   26805kB time=00:02:17.13 bitrate=1601.2kbits/
  51. frame= 3695 fps=3638 q=-1.0 size=   32984kB time=00:02:34.11 bitrate=1753.3kbits
  52. frame= 4505 fps=2799 q=-1.0 size=   39854kB time=00:03:07.89 bitrate=1737.6kbits
  53. frame= 5760 fps=2731 q=-1.0 size=   43933kB time=00:04:00.23 bitrate=1498.1kbits
  54. frame= 7983 fps=3041 q=-1.0 size=   54108kB time=00:05:32.95 bitrate=1331.3kbits
  55. frame= 9573 fps=3063 q=-1.0 size=   62890kB time=00:06:39.27 bitrate=1290.3kbits
  56. frame= 9859 fps=2720 q=-1.0 size=   69011kB time=00:06:51.20 bitrate=1374.8kbits
  57. frame=10105 fps=2431 q=-1.0 size=   75620kB time=00:07:01.46 bitrate=1469.8kbits
  58. frame=10407 fps=2205 q=-1.0 size=   79202kB time=00:07:14.05 bitrate=1494.8kbits
  59. frame=12197 fps=2337 q=-1.0 size=   89413kB time=00:08:28.71 bitrate=1439.8kbits
  60. frame=13178 fps=2304 q=-1.0 size=   96177kB time=00:09:09.63 bitrate=1433.5kbits
  61. frame=14633 fps=2353 q=-1.0 size=  105422kB time=00:10:10.31 bitrate=1415.0kbits
  62. frame=15568 fps=2317 q=-1.0 size=  110587kB time=00:10:49.31 bitrate=1395.2kbits
  63. frame=16559 fps=2294 q=-1.0 size=  114859kB time=00:11:30.64 bitrate=1362.4kbits
  64. frame=18040 fps=2337 q=-1.0 size=  120734kB time=00:12:32.41 bitrate=1314.5kbits
  65. frame=19087 fps=2322 q=-1.0 size=  125434kB time=00:13:16.08 bitrate=1290.8kbits
  66. frame=20103 fps=2306 q=-1.0 size=  132219kB time=00:13:58.46 bitrate=1291.8kbits
  67. frame=20568 fps=2231 q=-1.0 size=  136360kB time=00:14:17.85 bitrate=1302.2kbits
  68. frame=20669 fps=2120 q=-1.0 size=  136980kB time=00:14:22.06 bitrate=1301.7kbits
  69. frame=21553 fps=2103 q=-1.0 size=  143550kB time=00:14:58.93 bitrate=1308.2kbits
  70. frame=22595 fps=2099 q=-1.0 size=  148275kB time=00:15:42.39 bitrate=1288.9kbits
  71. frame=23833 fps=2113 q=-1.0 size=  154340kB time=00:16:34.03 bitrate=1271.9kbits
  72. frame=24470 fps=2077 q=-1.0 size=  159461kB time=00:17:00.60 bitrate=1279.9kbits
  73. frame=25380 fps=2067 q=-1.0 size=  167082kB time=00:17:38.55 bitrate=1293.0kbits
  74. frame=26288 fps=2057 q=-1.0 size=  172496kB time=00:18:16.42 bitrate=1288.8kbits
  75. frame=27079 fps=2039 q=-1.0 size=  178308kB time=00:18:49.41 bitrate=1293.3kbits
  76. frame=28371 fps=2059 q=-1.0 size=  184605kB time=00:19:43.30 bitrate=1278.0kbits
  77. frame=30564 fps=2138 q=-1.0 size=  191808kB time=00:21:14.77 bitrate=1232.6kbits
  78. frame=31415 fps=2123 q=-1.0 size=  197189kB time=00:21:50.26 bitrate=1232.9kbits
  79. frame=32363 fps=2116 q=-1.0 size=  203048kB time=00:22:29.80 bitrate=1232.3kbits
  80. frame=33341 fps=2111 q=-1.0 size=  207922kB time=00:23:10.59 bitrate=1224.9kbits
  81. frame=34435 fps=2113 q=-1.0 size=  213270kB time=00:23:56.22 bitrate=1216.5kbits
  82. frame=35284 fps=2099 q=-1.0 size=  217650kB time=00:24:31.63 bitrate=1211.6kbits
  83. frame=36515 fps=2105 q=-1.0 size=  223660kB time=00:25:22.97 bitrate=1203.1kbits
  84. frame=37178 fps=2084 q=-1.0 size=  229365kB time=00:25:50.63 bitrate=1211.7kbits
  85. frame=37948 fps=2069 q=-1.0 size=  236247kB time=00:26:22.74 bitrate=1222.8kbits
  86. frame=38646 fps=2049 q=-1.0 size=  241546kB time=00:26:51.85 bitrate=1227.6kbits
  87. frame=39627 fps=2044 q=-1.0 size=  248014kB time=00:27:32.77 bitrate=1229.3kbits
  88. frame=40457 fps=2034 q=-1.0 size=  254397kB time=00:28:07.39 bitrate=1235.1kbits
  89. frame=41812 fps=2051 q=-1.0 size=  260901kB time=00:29:03.90 bitrate=1225.6kbits
  90. frame=43665 fps=2087 q=-1.0 size=  267687kB time=00:30:21.19 bitrate=1204.1kbits
  91. frame=45450 fps=2117 q=-1.0 size=  275322kB time=00:31:35.64 bitrate=1189.8kbits
  92. frame=47141 fps=2146 q=-1.0 size=  281100kB time=00:32:46.17 bitrate=1171.2kbits
  93. frame=48544 fps=2156 q=-1.0 size=  286510kB time=00:33:44.68 bitrate=1159.2kbits
  94. frame=49981 fps=2172 q=-1.0 size=  292204kB time=00:34:44.62 bitrate=1148.3kbits
  95. frame=51337 fps=2183 q=-1.0 size=  297658kB time=00:35:41.18 bitrate=1138.8kbits
  96. frame=52291 fps=2177 q=-1.0 size=  303469kB time=00:36:20.96 bitrate=1139.9kbits
  97. frame=52599 fps=2146 q=-1.0 size=  307532kB time=00:36:33.81 bitrate=1148.4kbits
  98. frame=53226 fps=2126 q=-1.0 size=  313118kB time=00:36:59.96 bitrate=1155.5kbits
  99. frame=54100 fps=2119 q=-1.0 size=  317754kB time=00:37:36.41 bitrate=1153.6kbits
  100. frame=55643 fps=2138 q=-1.0 size=  325039kB time=00:38:40.77 bitrate=1147.3kbits
  101. frame=57152 fps=2154 q=-1.0 size=  332149kB time=00:39:43.71 bitrate=1141.5kbits
  102. frame=57442 fps=2139 q=-1.0 Lsize=  336121kB time=00:39:55.80 bitrate=1149.3kbit
  103. s/s
  104. video:294953kB audio:37434kB subtitle:0kB other streams:0kB global headers:0kB m
  105. uxing overhead: 1.123446%
  106.  
  107. C:\Documents and Settings\Leo\Desktop\ffmpeg-20151008-git-5911eeb-win32-static\b
  108. in>ffmpeg.exe -i erfge.avi -i "AudioMUX ITA 2x01.mp3" -c copy -shortest out.avi
RAW Paste Data
We use cookies for various purposes including analytics. By continuing to use Pastebin, you agree to our use of cookies as described in the Cookies Policy. OK, I Understand
 
Top