GrabHD

Untitled

Feb 25th, 2020
79
Never
Not a member of Pastebin yet? Sign Up, it unlocks many cool features!
  1. Общее
  2. Уникальный идентификатор : 90993272993028124286629301657083604629 (0x4474AABB3CA1DFAF94ACAF9E3A406E95)
  3. Полное имя : F:OlLanDGroupProshchatsya.Ne.Budem.2018.WEB-DLRip(AVC).OlLanDGroup.mkv
  4. Формат : Matroska
  5. Версия формата : Version 4 / Version 2
  6. Размер файла : 1,46 Гбайт
  7. Продолжительность : 1 ч. 55 м.
  8. Общий поток : 1812 Кбит/сек
  9. Название фильма : Proshchatsya.Ne.Budem.2018 #TorpedoUK#
  10. Дата кодирования : UTC 2018-07-21 04:40:14
  11. Программа кодирования : mkvmerge v25.0.0 ('Prog Noir') 64-bit
  12. Библиотека кодирования : libebml v1.3.6 + libmatroska v1.4.9
  13.  
  14. Видео
  15. Идентификатор : 1
  16. Формат : AVC
  17. Формат/Информация : Advanced Video Codec
  18. Профиль формата : High@L4.1
  19. Параметр CABAC формата : Да
  20. Параметр ReFrames формата : 10 кадров
  21. Идентификатор кодека : V_MPEG4/ISO/AVC
  22. Продолжительность : 1 ч. 55 м.
  23. Битрейт : 1427 Кбит/сек
  24. Ширина : 1024 пикселя
  25. Высота : 428 пикселей
  26. Соотношение сторон : 2,40:1
  27. Режим частоты кадров : Постоянный
  28. Частота кадров : 24,000 кадра/сек
  29. Цветовое пространство : YUV
  30. Субдискретизация насыщенности : 4:2:0
  31. Битовая глубина : 8 бит
  32. Тип развёртки : Прогрессивная
  33. Бит/(Пиксели*Кадры) : 0.136
  34. Размер потока : 1,15 Гбайт (79%)
  35. Библиотека кодирования : x264 core 146 r2538 121396c
  36. Настройки программы : cabac=1 / ref=10 / deblock=1:-3:-3 / analyse=0x3:0x113 / me=umh / subme=11 / psy=1 / psy_rd=0.97:0.05 / mixed_ref=1 / me_range=48 / chroma_me=1 / trellis=2 / 8x8dct=1 / cqm=0 / deadzone=21,11 / fast_pskip=1 / chroma_qp_offset=-3 / threads=6 / lookahead_threads=1 / sliced_threads=0 / nr=0 / decimate=1 / interlaced=0 / bluray_compat=0 / constrained_intra=0 / bframes=10 / b_pyramid=2 / b_adapt=2 / b_bias=0 / direct=3 / weightb=1 / open_gop=0 / weightp=2 / keyint=240 / keyint_min=24 / scenecut=40 / intra_refresh=0 / rc_lookahead=40 / rc=2pass / mbtree=1 / bitrate=1427 / ratetol=1.0 / qcomp=0.60 / qpmin=0 / qpmax=69 / qpstep=4 / cplxblur=20.0 / qblur=0.5 / vbv_maxrate=50000 / vbv_bufsize=62500 / nal_hrd=none / filler=0 / ip_ratio=1.40 / aq=1:1.00
  37. Default : Да
  38. Forced : Нет
  39.  
  40. Аудио
  41. Идентификатор : 2
  42. Формат : AC-3
  43. Формат/Информация : Audio Coding 3
  44. Расширение режима : CM (complete main)
  45. Параметр Endianness формата : Big
  46. Идентификатор кодека : A_AC3
  47. Продолжительность : 1 ч. 55 м.
  48. Вид битрейта : Постоянный
  49. Битрейт : 384 Кбит/сек
  50. Каналы : 6 каналов
  51. Расположение каналов : Front: L C R, Side: L R, LFE
  52. Частота : 48,0 КГц
  53. Частота кадров : 31,250 кадров/сек (1536 spf)
  54. Битовая глубина : 16 бит
  55. Метод сжатия : С потерями
  56. Размер потока : 317 Мбайт (21%)
  57. Заголовок : iTunes
  58. Язык : Russian
  59. Default : Да
  60. Forced : Нет
  61.  
  62. Меню
  63. 00:00:00.000 : en:Глава 1
  64. 00:07:24.916 : en:Глава 2
  65. 00:14:18.624 : en:Глава 3
  66. 00:21:54.707 : en:Глава 4
  67. 00:29:41.582 : en:Глава 5
  68. 00:35:32.582 : en:Глава 6
  69. 00:40:23.748 : en:Глава 7
  70. 00:45:29.081 : en:Глава 8
  71. 00:52:01.497 : en:Глава 9
  72. 00:59:00.663 : en:Глава 10
  73. 01:07:20.538 : en:Глава 11
  74. 01:13:37.704 : en:Глава 12
  75. 01:18:24.079 : en:Глава 13
  76. 01:27:47.162 : en:Глава 14
  77. 01:35:29.120 : en:Глава 15
  78. 01:40:38.203 : en:Глава 16
  79. 01:47:06.786 : en:Глава 17
RAW Paste Data