Guest User

Untitled

a guest
Apr 20th, 2017
142
Never
Not a member of Pastebin yet? Sign Up, it unlocks many cool features!
  1. ffmpeg version N-85588-g6108805 Copyright (c) 2000-2017 the FFmpeg developers
  2. built with gcc 6.3.0 (GCC)
  3. configuration: --enable-gpl --enable-version3 --enable-cuda --enable-cuvid --enable-d3d11va --enable-dxva2 --enable-libmfx --enable-nvenc --enable-avisynth --enable-bzlib --enable-fontconfig --enable-frei0r --enable-gnutls --enable-iconv --enable-libass --enable-libbluray --enable-libbs2b --enable-libcaca --enable-libfreetype --enable-libgme --enable-libgsm --enable-libilbc --enable-libmodplug --enable-libmp3lame --enable-libopencore-amrnb --enable-libopencore-amrwb --enable-libopenh264 --enable-libopenjpeg --enable-libopus --enable-librtmp --enable-libsnappy --enable-libsoxr --enable-libspeex --enable-libtheora --enable-libtwolame --enable-libvidstab --enable-libvo-amrwbenc --enable-libvorbis --enable-libvpx --enable-libwavpack --enable-libwebp --enable-libx264 --enable-libx265 --enable-libxavs --enable-libxvid --enable-libzimg --enable-lzma --enable-zlib
  4. libavutil 55. 61.100 / 55. 61.100
  5. libavcodec 57. 93.100 / 57. 93.100
  6. libavformat 57. 72.101 / 57. 72.101
  7. libavdevice 57. 7.100 / 57. 7.100
  8. libavfilter 6. 84.101 / 6. 84.101
  9. libswscale 4. 7.101 / 4. 7.101
  10. libswresample 2. 8.100 / 2. 8.100
  11. libpostproc 54. 6.100 / 54. 6.100
  12. Input #0, h264, from '19000500.sec':
  13. Duration: N/A, bitrate: N/A
  14. Stream #0:0: Video: h264 (Baseline), yuv420p(progressive), 352x240, 25 fps, 25 tbr, 1200k tbn, 50 tbc
  15. Output #0, avi, to 'output.avi':
  16. Metadata:
  17. ISFT : Lavf57.72.101
  18. Stream #0:0: Video: h264 (Baseline) (H264 / 0x34363248), yuv420p(progressive), 352x240, q=2-31, 25 fps, 25 tbr, 50 tbn, 50 tbc
  19. Stream mapping:
  20. Stream #0:0 -> #0:0 (copy)
  21. Press [q] to stop, [?] for help
  22. [avi @ 000000000282b8e0] Timestamps are unset in a packet for stream 0. This is deprecated and will stop working in the future. Fix your code to set the timestamps properly
  23. [NULL @ 0000000000663c60] missing picture in access unit with size 19
  24. [NULL @ 0000000000663c60] SEI type 254 size 1288 truncated at 104
  25. [NULL @ 0000000000663c60] non-existing PPS 1 referenced
  26. [NULL @ 0000000000663c60] non-existing PPS 3 referenced
  27. [NULL @ 0000000000663c60] SEI type 12 size 1552 truncated at 104
  28. [NULL @ 0000000000663c60] non-existing PPS 3 referenced
  29. [NULL @ 0000000000663c60] non-existing PPS 14 referenced
  30. [NULL @ 0000000000663c60] missing picture in access unit with size 19
  31. [NULL @ 0000000000663c60] SEI type 131 size 1640 truncated at 104
  32. [NULL @ 0000000000663c60] sps_id 1 out of range
  33. [NULL @ 0000000000663c60] sps_id 2 out of range
  34. Last message repeated 1 times
  35. [NULL @ 0000000000663c60] FMO not supported
  36. [NULL @ 0000000000663c60] non-existing PPS 3 referenced
  37. [NULL @ 0000000000663c60] SEI type 131 size 192 truncated at 104
  38. [NULL @ 0000000000663c60] sps_id 1 out of range
  39. [NULL @ 0000000000663c60] SEI type 203 size 512 truncated at 104
  40. [NULL @ 0000000000663c60] missing picture in access unit with size 19
  41. frame=27485 fps=0.0 q=-1.0 size= 91845kB time=00:18:19.38 bitrate= 684.4kbits/s speed=2.2e+003x
  42. [NULL @ 0000000000663c60] non-existing PPS 14 referenced
  43. [NULL @ 0000000000663c60] Reducing left cropping to 0 chroma samples to preserve alignment.
  44. [NULL @ 0000000000663c60] crop values invalid 0 1 0 26 / 48 48
  45. [NULL @ 0000000000663c60] SEI type 113 size 704 truncated at 104
  46. [NULL @ 0000000000663c60] illegal POC type 13
  47. [NULL @ 0000000000663c60] SEI type 209 size 1976 truncated at 104
  48. [NULL @ 0000000000663c60] illegal memory management control operation 12
  49. [NULL @ 0000000000663c60] log2_max_poc_lsb (23) is out of range
  50. [NULL @ 0000000000663c60] SEI type 208 size 1184 truncated at 24
  51. [NULL @ 0000000000663c60] reference count 1 overflow
  52. [NULL @ 0000000000663c60] FMO not supported
  53. [NULL @ 0000000000663c60] luma_log2_weight_denom 11 is out of range
  54. [NULL @ 0000000000663c60] illegal reordering_of_pic_nums_idc 32
  55. [NULL @ 0000000000663c60] missing picture in access unit with size 19
  56. [NULL @ 0000000000663c60] illegal reordering_of_pic_nums_idc 32
  57. Last message repeated 1 times
  58. [NULL @ 0000000000663c60] illegal reordering_of_pic_nums_idc 11
  59. [NULL @ 0000000000663c60] illegal reordering_of_pic_nums_idc 32
  60. frame=53269 fps=53250 q=-1.0 size= 178013kB time=00:35:30.74 bitrate= 684.4kbits/s speed=2.13e+003x
  61. [NULL @ 0000000000663c60] missing picture in access unit with size 19
  62. [NULL @ 0000000000663c60] FMO not supported
  63. [NULL @ 0000000000663c60] reference overflow 42 > 15 or 0 > 15
  64. Last message repeated 2 times
  65. [NULL @ 0000000000663c60] sps_id 5 out of range
  66. [NULL @ 0000000000663c60] sps_id 2 out of range
  67. [NULL @ 0000000000663c60] SEI type 190 size 1440 truncated at 104
  68. [NULL @ 0000000000663c60] non-existing PPS 14 referenced
  69. [NULL @ 0000000000663c60] SEI type 3 size 784 truncated at 104
  70. [NULL @ 0000000000663c60] SEI type 253 size 408 truncated at 104
  71. [NULL @ 0000000000663c60] missing picture in access unit with size 19
  72. [NULL @ 0000000000663c60] Reducing left cropping to 0 chroma samples to preserve alignment.
  73. [NULL @ 0000000000663c60] illegal aspect ratio
  74. [NULL @ 0000000000663c60] SEI type 167 size 936 truncated at 104
  75. [NULL @ 0000000000663c60] SEI type 180 size 1024 truncated at 104
  76. [NULL @ 0000000000663c60] SEI type 239 size 1648 truncated at 104
  77. [NULL @ 0000000000663c60] illegal aspect ratio
  78. [NULL @ 0000000000663c60] non-existing PPS 1 referenced
  79. frame=79843 fps=53212 q=-1.0 size= 266802kB time=00:53:13.70 bitrate= 684.4kbits/s speed=2.13e+003x
  80. [NULL @ 0000000000663c60] Reducing left cropping to 224 chroma samples to preserve alignment.
  81. [NULL @ 0000000000663c60] crop values invalid 224 1 0 0 / 16 240
  82. [NULL @ 0000000000663c60] SEI type 59 size 464 truncated at 96
  83. [NULL @ 0000000000663c60] non-existing PPS 1 referenced
  84. [NULL @ 0000000000663c60] SEI type 144 size 1312 truncated at 104
  85. [NULL @ 0000000000663c60] missing picture in access unit with size 19
  86. [NULL @ 0000000000663c60] illegal POC type 4
  87. [NULL @ 0000000000663c60] SEI type 166 size 736 truncated at 104
  88. [NULL @ 0000000000663c60] illegal reordering_of_pic_nums_idc 6
  89. [NULL @ 0000000000663c60] FMO not supported
  90. [NULL @ 0000000000663c60] sps_id 32 out of range
  91. frame=103640 fps=51805 q=-1.0 size= 346374kB time=01:09:05.58 bitrate= 684.5kbits/s speed=2.07e+003x
  92. [NULL @ 0000000000663c60] missing picture in access unit with size 19
  93. [NULL @ 0000000000663c60] non-existing PPS 1 referenced
  94. [NULL @ 0000000000663c60] sps_id 32 out of range
  95. [NULL @ 0000000000663c60] illegal reordering_of_pic_nums_idc 32
  96. [NULL @ 0000000000663c60] reference count 1 overflow
  97. [NULL @ 0000000000663c60] reference overflow 279 > 15 or 0 > 15
  98. [NULL @ 0000000000663c60] illegal reordering_of_pic_nums_idc 32
  99. [NULL @ 0000000000663c60] SEI type 250 size 1376 truncated at 104
  100. [NULL @ 0000000000663c60] SEI type 207 size 1776 truncated at 104
  101. [NULL @ 0000000000663c60] illegal aspect ratio
  102. [NULL @ 0000000000663c60] FMO not supported
  103. frame=129654 fps=51847 q=-1.0 size= 433307kB time=01:26:26.14 bitrate= 684.4kbits/s speed=2.07e+003x
  104. [NULL @ 0000000000663c60] non-existing PPS 1 referenced
  105. frame=133887 fps=51205 q=-1.0 Lsize= 451812kB time=01:29:15.46 bitrate= 691.1kbits/s speed=2.05e+003x
  106. video:445466kB audio:0kB subtitle:0kB other streams:0kB global headers:0kB muxing overhead: 1.424746%
RAW Paste Data