Henry_Kr

GSP-S01

Jun 5th, 2021
45
Never
Not a member of Pastebin yet? Sign Up, it unlocks many cool features!
  1. Video
  2. ID : 1
  3. Format : AVC
  4. Format/Info : Advanced Video Codec
  5. Format profile : Main@L4
  6. Format settings : CABAC / 3 Ref Frames
  7. Format settings, CABAC : Yes
  8. Format settings, Reference : 3 frames
  9. Codec ID : V_MPEG4/ISO/AVC
  10. Duration : 23 min 36 s
  11. Bit rate mode : Variable
  12. Bit rate : 2 634 kb/s
  13. Nominal bit rate : 4 640 kb/s
  14. Maximum bit rate : 6 960 kb/s
  15. Width : 1 920 pixels
  16. Height : 1 080 pixels
  17. Display aspect ratio : 16:9
  18. Frame rate mode : Constant
  19. Frame rate : 23.976 (24000/1001) FPS
  20. Color space : YUV
  21. Chroma subsampling : 4:2:0
  22. Bit depth : 8 bits
  23. Scan type : Progressive
  24. Bits/(Pixel*Frame) : 0.053
  25. Stream size : 445 MiB (91%)
  26. Writing library : x264 core 148 r2722 1b0121b
  27. Encoding settings : cabac=1 / ref=3 / deblock=1:0:0 / analyse=0x1:0x111 / me=umh / subme=10 / psy=1 / psy_rd=1.00:0.00 / mixed_ref=1 / me_range=24 / chroma_me=1 / trellis=2 / 8x8dct=0 / cqm=0 / deadzone=21,11 / fast_pskip=1 / chroma_qp_offset=-2 / threads=8 / lookahead_threads=1 / sliced_threads=0 / nr=0 / decimate=1 / interlaced=0 / bluray_compat=0 / stitchable=1 / constrained_intra=0 / bframes=2 / b_pyramid=0 / b_adapt=2 / b_bias=0 / direct=3 / weightb=1 / open_gop=0 / weightp=2 / keyint=250 / keyint_min=23 / scenecut=0 / intra_refresh=0 / rc_lookahead=48 / rc=2pass / mbtree=1 / bitrate=4640 / ratetol=1.0 / qcomp=0.50 / qpmin=6 / qpmax=51 / qpstep=4 / cplxblur=20.0 / qblur=0.5 / vbv_maxrate=6960 / vbv_bufsize=9280 / nal_hrd=vbr / filler=0 / ip_ratio=1.40 / aq=1:1.00
  28. Default : Yes
  29. Forced : No
  30.  
  31. Audio #1
  32. ID : 2
  33. Format : E-AC-3
  34. Format/Info : Enhanced AC-3
  35. Commercial name : Dolby Digital Plus
  36. Codec ID : A_EAC3
  37. Duration : 23 min 37 s
  38. Bit rate mode : Constant
  39. Bit rate : 128 kb/s
  40. Channel(s) : 2 channels
  41. Channel layout : L R
  42. Sampling rate : 48.0 kHz
  43. Frame rate : 31.250 FPS (1536 SPF)
  44. Compression mode : Lossy
  45. Stream size : 21.6 MiB (4%)
  46. Title : Brazilian Portuguese
  47. Language : Portuguese
  48. Service kind : Complete Main
  49. Default : No
  50. Forced : No
  51.  
  52. Audio #2
  53. ID : 3
  54. Format : E-AC-3
  55. Format/Info : Enhanced AC-3
  56. Commercial name : Dolby Digital Plus
  57. Codec ID : A_EAC3
  58. Duration : 23 min 37 s
  59. Bit rate mode : Constant
  60. Bit rate : 128 kb/s
  61. Channel(s) : 2 channels
  62. Channel layout : L R
  63. Sampling rate : 48.0 kHz
  64. Frame rate : 31.250 FPS (1536 SPF)
  65. Compression mode : Lossy
  66. Stream size : 21.6 MiB (4%)
  67. Title : Japanese
  68. Language : Japanese
  69. Service kind : Complete Main
  70. Default : No
  71. Forced : No
  72.  
  73. Text #1
  74. ID : 4
  75. Format : UTF-8
  76. Codec ID : S_TEXT/UTF8
  77. Codec ID/Info : UTF-8 Plain Text
  78. Duration : 23 min 33 s
  79. Bit rate : 81 b/s
  80. Count of elements : 397
  81. Stream size : 14.0 KiB (0%)
  82. Title : Brazilian Portuguese
  83. Language : Portuguese
  84. Default : No
  85. Forced : No
  86.  
  87. Text #2
  88. ID : 5
  89. Format : UTF-8
  90. Codec ID : S_TEXT/UTF8
  91. Codec ID/Info : UTF-8 Plain Text
  92. Duration : 23 min 33 s
  93. Bit rate : 78 b/s
  94. Count of elements : 389
  95. Stream size : 13.5 KiB (0%)
  96. Title : English
  97. Language : English
  98. Default : Yes
  99. Forced : No
RAW Paste Data