SHARE
TWEET

e2bf62e8bdc843a1b49c0a46ace21b99.mkv

a guest Jul 20th, 2018 66 Never
Not a member of Pastebin yet? Sign Up, it unlocks many cool features!
  1. General
  2. Unique ID                                : 174828014653128911761475672400799781045 (0x8386A69E5B2CDF1387B592EADAC4D0B5)
  3. Complete name                            : e2bf62e8bdc843a1b49c0a46ace21b99.mkv
  4. Format                                   : Matroska
  5. Format version                           : Version 4 / Version 2
  6. File size                                : 18.2 GiB
  7. Duration                                 : 1h 55mn
  8. Overall bit rate                         : 22.5 Mbps
  9. Movie name                               : Speed.1994.BluRay.Remux.1080p.AVC.DTS-HD.MA.5.1-O1dHD
  10. Encoded date                             : UTC 2014-09-19 04:50:07
  11. Writing application                      : mkvmerge v7.2.0 ('On Every Street') 64bit built on Sep 13 2014 15:52:10
  12. Writing library                          : libebml v1.3.0 + libmatroska v1.4.1
  13.  
  14. Video
  15. ID                                       : 1
  16. Format                                   : AVC
  17. Format/Info                              : Advanced Video Codec
  18. Format profile                           : High@L4.1
  19. Format settings, CABAC                   : Yes
  20. Format settings, ReFrames                : 2 frames
  21. Format settings, GOP                     : M=3, N=24
  22. Codec ID                                 : V_MPEG4/ISO/AVC
  23. Duration                                 : 1h 55mn
  24. Bit rate                                 : 18.1 Mbps
  25. Width                                    : 1 920 pixels
  26. Height                                   : 1 080 pixels
  27. Display aspect ratio                     : 16:9
  28. Frame rate mode                          : Constant
  29. Frame rate                               : 23.976 (24000/1001) fps
  30. Color space                              : YUV
  31. Chroma subsampling                       : 4:2:0
  32. Bit depth                                : 8 bits
  33. Scan type                                : Progressive
  34. Bits/(Pixel*Frame)                       : 0.365
  35. Stream size                              : 14.7 GiB (81%)
  36. Title                                    : MPEG-4 AVC Video / 18140 kbps / 1080p / 23.976 fps / 16:9 / High Profile 4.1
  37. Language                                 : English
  38. Default                                  : Yes
  39. Forced                                   : No
  40.  
  41. Audio #1
  42. ID                                       : 2
  43. Format                                   : DTS
  44. Format/Info                              : Digital Theater Systems
  45. Format profile                           : MA / Core
  46. Mode                                     : 16
  47. Format settings, Endianness              : Big
  48. Codec ID                                 : A_DTS
  49. Duration                                 : 1h 55mn
  50. Bit rate mode                            : Variable / Constant
  51. Bit rate                                 : 3 840 Kbps / 1 509 Kbps
  52. Channel(s)                               : 6 channels
  53. Channel positions                        : Front: L C R, Side: L R, LFE
  54. Sampling rate                            : 48.0 KHz
  55. Frame rate                               : 93.750 fps (512 spf)
  56. Bit depth                                : 24 bits
  57. Compression mode                         : Lossless / Lossy
  58. Stream size                              : 3.13 GiB (17%)
  59. Title                                    : DTS-HD Master Audio / 5.1 / 48 kHz / 3865 kbps / 24-bit
  60. Language                                 : English
  61. Default                                  : Yes
  62. Forced                                   : No
  63.  
  64. Audio #2
  65. ID                                       : 3
  66. Format                                   : AC-3
  67. Format/Info                              : Audio Coding 3
  68. Mode extension                           : CM (complete main)
  69. Format settings, Endianness              : Big
  70. Codec ID                                 : A_AC3
  71. Duration                                 : 1h 55mn
  72. Bit rate mode                            : Constant
  73. Bit rate                                 : 224 Kbps
  74. Channel(s)                               : 2 channels
  75. Channel positions                        : Front: L R
  76. Sampling rate                            : 48.0 KHz
  77. Frame rate                               : 31.250 fps (1536 spf)
  78. Compression mode                         : Lossy
  79. Stream size                              : 186 MiB (1%)
  80. Title                                    : Commentary with director Jan De Bon
  81. Language                                 : English
  82. Default                                  : No
  83. Forced                                   : No
  84.  
  85. Audio #3
  86. ID                                       : 4
  87. Format                                   : AC-3
  88. Format/Info                              : Audio Coding 3
  89. Mode extension                           : CM (complete main)
  90. Format settings, Endianness              : Big
  91. Codec ID                                 : A_AC3
  92. Duration                                 : 1h 55mn
  93. Bit rate mode                            : Constant
  94. Bit rate                                 : 224 Kbps
  95. Channel(s)                               : 2 channels
  96. Channel positions                        : Front: L R
  97. Sampling rate                            : 48.0 KHz
  98. Frame rate                               : 31.250 fps (1536 spf)
  99. Compression mode                         : Lossy
  100. Stream size                              : 186 MiB (1%)
  101. Title                                    : Commentary with writer Graham Yost and producer Mark Gordon
  102. Language                                 : English
  103. Default                                  : No
  104. Forced                                   : No
  105.  
  106. Text #1
  107. ID                                       : 5
  108. Format                                   : PGS
  109. Muxing mode                              : zlib
  110. Codec ID                                 : S_HDMV/PGS
  111. Codec ID/Info                            : Picture based subtitle format used on BDs/HD-DVDs
  112. Duration                                 : 1h 51mn
  113. Bit rate                                 : 24.4 Kbps
  114. Count of elements                        : 1714
  115. Stream size                              : 19.5 MiB (0%)
  116. Language                                 : English
  117. Default                                  : No
  118. Forced                                   : No
  119.  
  120. Text #2
  121. ID                                       : 6
  122. Format                                   : PGS
  123. Muxing mode                              : zlib
  124. Codec ID                                 : S_HDMV/PGS
  125. Codec ID/Info                            : Picture based subtitle format used on BDs/HD-DVDs
  126. Duration                                 : 1h 47mn
  127. Bit rate                                 : 21.7 Kbps
  128. Count of elements                        : 1624
  129. Stream size                              : 16.7 MiB (0%)
  130. Language                                 : Spanish
  131. Default                                  : No
  132. Forced                                   : No
  133.  
  134. Text #3
  135. ID                                       : 7
  136. Format                                   : PGS
  137. Muxing mode                              : zlib
  138. Codec ID                                 : S_HDMV/PGS
  139. Codec ID/Info                            : Picture based subtitle format used on BDs/HD-DVDs
  140. Duration                                 : 1h 43mn
  141. Bit rate                                 : 155 bps
  142. Count of elements                        : 27
  143. Stream size                              : 118 KiB (0%)
  144. Language                                 : French
  145. Default                                  : No
  146. Forced                                   : No
  147.  
  148. Text #4
  149. ID                                       : 8
  150. Format                                   : PGS
  151. Muxing mode                              : zlib
  152. Codec ID                                 : S_HDMV/PGS
  153. Codec ID/Info                            : Picture based subtitle format used on BDs/HD-DVDs
  154. Duration                                 : 1h 50mn
  155. Bit rate                                 : 2 331 bps
  156. Count of elements                        : 119
  157. Stream size                              : 1.84 MiB (0%)
  158. Title                                    : Trivia
  159. Language                                 : English
  160. Default                                  : No
  161. Forced                                   : No
  162.  
  163. Menu
  164. 00:00:00.000                             : en:Main Titles
  165. 00:04:18.550                             : en:Hole the Elevator
  166. 00:06:04.280                             : en:L.a.P.D. Bomb Squad
  167. 00:08:27.089                             : en:Down the Shaft
  168. 00:11:17.885                             : en:A Gut Feeling
  169. 00:15:23.714                             : en:Perilous Rescue
  170. 00:17:38.223                             : en:He's Here!
  171. 00:23:21.817                             : en:Heroes
  172. 00:26:43.768                             : en:The Game Begins
  173. 00:31:01.776                             : en:The Bus
  174. 00:35:05.520                             : en:High Speed Pursuit with "Tune Man"
  175. 00:40:23.587                             : en:Jack on Board
  176. 00:44:32.753                             : en:Under the Bus
  177. 00:48:46.506                             : en:Through the Streets; a Hard Right
  178. 00:53:09.185                             : en:An Empty Freeway
  179. 00:55:44.215                             : en:Passenger Transfer
  180. 00:58:51.819                             : en:Watch Your Step
  181. 01:02:19.444                             : en:Leap of Faith
  182. 01:07:38.387                             : en:Circling the Runway
  183. 01:08:54.547                             : en:Jack Gets Off
  184. 01:11:51.515                             : en:The Plan
  185. 01:15:16.845                             : en:Howard Payne
  186. 01:15:40.536                             : en:Belly of the Beast
  187. 01:19:33.518                             : en:A Costly Mistake
  188. 01:23:27.585                             : en:Video Games
  189. 01:27:04.636                             : en:Evacuation
  190. 01:32:57.196                             : en:The Trap
  191. 01:37:06.028                             : en:Going Underground
  192. 01:40:28.230                             : en:On the Train
  193. 01:42:19.883                             : en:Howard's Headache
  194. 01:46:05.776                             : en:Full Speed Ahead
  195. 01:50:06.266                             : en:End Credits
RAW Paste Data
We use cookies for various purposes including analytics. By continuing to use Pastebin, you agree to our use of cookies as described in the Cookies Policy. OK, I Understand
Not a member of Pastebin yet?
Sign Up, it unlocks many cool features!
 
Top