GrabHD

Untitled

Feb 20th, 2020
126
Never
Not a member of Pastebin yet? Sign Up, it unlocks many cool features!
  1. General
  2. Unique ID : 208974270788513377791417703944373128093 (0x9D36FB06C108C603B0C156CA8A3FCB9D)
  3. Complete name : D:Undisputed (2002) Open Matte 1080p.mkv
  4. Format : Matroska
  5. Format version : Version 4
  6. File size : 10.6 GiB
  7. Duration : 1 h 33 min
  8. Overall bit rate : 16.2 Mb/s
  9. Encoded date : UTC 2020-02-20 17:22:41
  10. Writing application : mkvmerge v8.3.0 ('Over the Horizon') 32bit
  11. Writing library : libebml v1.3.1 + libmatroska v1.4.2
  12.  
  13. Video
  14. ID : 1
  15. Format : AVC
  16. Format/Info : Advanced Video Codec
  17. Format profile : High@L4
  18. Format settings : CABAC / 4 Ref Frames
  19. Format settings, CABAC : Yes
  20. Format settings, Reference : 4 frames
  21. Codec ID : V_MPEG4/ISO/AVC
  22. Duration : 1 h 33 min
  23. Bit rate : 13.2 Mb/s
  24. Width : 1 920 pixels
  25. Height : 1 080 pixels
  26. Display aspect ratio : 16:9
  27. Frame rate mode : Constant
  28. Frame rate : 23.976 (24000/1001) FPS
  29. Color space : YUV
  30. Chroma subsampling : 4:2:0
  31. Bit depth : 8 bits
  32. Scan type : Progressive
  33. Bits/(Pixel*Frame) : 0.266
  34. Stream size : 8.66 GiB (82%)
  35. Default : Yes
  36. Forced : No
  37. Color range : Limited
  38. Color primaries : BT.709
  39. Transfer characteristics : BT.709
  40. Matrix coefficients : BT.709
  41.  
  42. Audio #1
  43. ID : 2
  44. Format : AC-3
  45. Format/Info : Audio Coding 3
  46. Commercial name : Dolby Digital
  47. Codec ID : A_AC3
  48. Duration : 1 h 33 min
  49. Bit rate mode : Constant
  50. Bit rate : 192 kb/s
  51. Channel(s) : 2 channels
  52. Channel layout : L R
  53. Sampling rate : 48.0 kHz
  54. Frame rate : 31.250 FPS (1536 SPF)
  55. Bit depth : 16 bits
  56. Compression mode : Lossy
  57. Stream size : 129 MiB (1%)
  58. Title : MVO
  59. Language : Russian
  60. Service kind : Complete Main
  61. Default : Yes
  62. Forced : No
  63.  
  64. Audio #2
  65. ID : 3
  66. Format : AC-3
  67. Format/Info : Audio Coding 3
  68. Commercial name : Dolby Digital
  69. Codec ID : A_AC3
  70. Duration : 1 h 33 min
  71. Bit rate mode : Constant
  72. Bit rate : 448 kb/s
  73. Channel(s) : 6 channels
  74. Channel layout : L R C LFE Ls Rs
  75. Sampling rate : 48.0 kHz
  76. Frame rate : 31.250 FPS (1536 SPF)
  77. Bit depth : 16 bits
  78. Compression mode : Lossy
  79. Stream size : 300 MiB (3%)
  80. Title : DVO R5
  81. Language : Russian
  82. Service kind : Complete Main
  83. Default : No
  84. Forced : No
  85.  
  86. Audio #3
  87. ID : 4
  88. Format : AC-3
  89. Format/Info : Audio Coding 3
  90. Commercial name : Dolby Digital
  91. Codec ID : A_AC3
  92. Duration : 1 h 33 min
  93. Bit rate mode : Constant
  94. Bit rate : 384 kb/s
  95. Channel(s) : 6 channels
  96. Channel layout : L R C LFE Ls Rs
  97. Sampling rate : 48.0 kHz
  98. Frame rate : 31.250 FPS (1536 SPF)
  99. Bit depth : 16 bits
  100. Compression mode : Lossy
  101. Stream size : 257 MiB (2%)
  102. Title : DVO
  103. Language : Russian
  104. Service kind : Complete Main
  105. Default : No
  106. Forced : No
  107.  
  108. Audio #4
  109. ID : 5
  110. Format : AC-3
  111. Format/Info : Audio Coding 3
  112. Commercial name : Dolby Digital
  113. Codec ID : A_AC3
  114. Duration : 1 h 33 min
  115. Bit rate mode : Constant
  116. Bit rate : 192 kb/s
  117. Channel(s) : 2 channels
  118. Channel layout : L R
  119. Sampling rate : 48.0 kHz
  120. Frame rate : 31.250 FPS (1536 SPF)
  121. Bit depth : 16 bits
  122. Compression mode : Lossy
  123. Stream size : 129 MiB (1%)
  124. Title : AVO Визгунов
  125. Language : Russian
  126. Service kind : Complete Main
  127. Default : No
  128. Forced : No
  129.  
  130. Audio #5
  131. ID : 6
  132. Format : DTS
  133. Format/Info : Digital Theater Systems
  134. Codec ID : A_DTS
  135. Duration : 1 h 33 min
  136. Bit rate mode : Constant
  137. Bit rate : 1 509 kb/s
  138. Channel(s) : 6 channels
  139. Channel layout : C L R Ls Rs LFE
  140. Sampling rate : 48.0 kHz
  141. Frame rate : 93.750 FPS (512 SPF)
  142. Bit depth : 24 bits
  143. Compression mode : Lossy
  144. Stream size : 1 011 MiB (9%)
  145. Language : English
  146. Default : No
  147. Forced : No
  148.  
  149. Audio #6
  150. ID : 7
  151. Format : E-AC-3
  152. Format/Info : Enhanced AC-3
  153. Commercial name : Dolby Digital Plus
  154. Codec ID : A_EAC3
  155. Duration : 1 h 33 min
  156. Bit rate mode : Constant
  157. Bit rate : 224 kb/s
  158. Channel(s) : 2 channels
  159. Channel layout : L R
  160. Sampling rate : 48.0 kHz
  161. Frame rate : 31.250 FPS (1536 SPF)
  162. Compression mode : Lossy
  163. Stream size : 150 MiB (1%)
  164. Title : Original - Amazon
  165. Language : English
  166. Service kind : Complete Main
  167. Default : No
  168. Forced : No
  169.  
  170. Text #1
  171. ID : 8
  172. Format : UTF-8
  173. Codec ID : S_TEXT/UTF8
  174. Codec ID/Info : UTF-8 Plain Text
  175. Duration : 1 h 26 min
  176. Bit rate : 120 b/s
  177. Count of elements : 1132
  178. Stream size : 76.3 KiB (0%)
  179. Language : Russian
  180. Default : No
  181. Forced : No
  182.  
  183. Text #2
  184. ID : 9
  185. Format : UTF-8
  186. Codec ID : S_TEXT/UTF8
  187. Codec ID/Info : UTF-8 Plain Text
  188. Duration : 1 h 29 min
  189. Bit rate : 84 b/s
  190. Count of elements : 1690
  191. Stream size : 55.5 KiB (0%)
  192. Language : English
  193. Default : No
  194. Forced : No
RAW Paste Data