Advertisement
Guest User

Untitled

a guest
Nov 6th, 2015
105
Never
Not a member of Pastebin yet? Sign Up, it unlocks many cool features!
  1. General
  2. Complete name : E:\I Hired a Contract Killer (1990)\I Hired a Contract Killer mux (1).avi
  3. Format : AVI
  4. Format/Info : Audio Video Interleave
  5. File size : 1.55 GiB
  6. Duration : 1h 19mn
  7. Overall bit rate : 2 809 Kbps
  8.  
  9. Video
  10. ID : 0
  11. Format : MPEG-4 Visual
  12. Format profile : Advanced Simple@L5
  13. Format settings, BVOP : 2
  14. Format settings, QPel : No
  15. Format settings, GMC : No warppoints
  16. Format settings, Matrix : Custom
  17. Codec ID : XVID
  18. Codec ID/Hint : XviD
  19. Duration : 1h 19mn
  20. Bit rate : 2 056 Kbps
  21. Width : 720 pixels
  22. Height : 400 pixels
  23. Display aspect ratio : 16:9
  24. Frame rate : 23.976 fps
  25. Color space : YUV
  26. Chroma subsampling : 4:2:0
  27. Bit depth : 8 bits
  28. Scan type : Progressive
  29. Compression mode : Lossy
  30. Bits/(Pixel*Frame) : 0.298
  31. Stream size : 1.14 GiB (73%)
  32. Writing library : XviD 73
  33.  
  34. Audio #1
  35. ID : 1
  36. Format : AC-3
  37. Format/Info : Audio Coding 3
  38. Mode extension : CM (complete main)
  39. Format settings, Endianness : Big
  40. Codec ID : 2000
  41. Duration : 1h 19mn
  42. Bit rate mode : Constant
  43. Bit rate : 192 Kbps
  44. Channel(s) : 2 channels
  45. Channel positions : Front: L R
  46. Sampling rate : 48.0 KHz
  47. Compression mode : Lossy
  48. Stream size : 109 MiB (7%)
  49. Alignment : Aligned on interleaves
  50. Interleave, duration : 64 ms (1.53 video frames)
  51. Interleave, preload duration : 192 ms
  52.  
  53. Audio #2
  54. ID : 2
  55. Format : AC-3
  56. Format/Info : Audio Coding 3
  57. Mode extension : CM (complete main)
  58. Format settings, Endianness : Big
  59. Codec ID : 2000
  60. Duration : 1h 19mn
  61. Bit rate mode : Constant
  62. Bit rate : 192 Kbps
  63. Channel(s) : 2 channels
  64. Channel positions : Front: L R
  65. Sampling rate : 48.0 KHz
  66. Compression mode : Lossy
  67. Stream size : 109 MiB (7%)
  68. Alignment : Aligned on interleaves
  69. Interleave, duration : 64 ms (1.53 video frames)
  70. Interleave, preload duration : 192 ms
  71.  
  72. Audio #3
  73. ID : 3
  74. Format : AC-3
  75. Format/Info : Audio Coding 3
  76. Mode extension : CM (complete main)
  77. Format settings, Endianness : Big
  78. Codec ID : 2000
  79. Duration : 1h 19mn
  80. Bit rate mode : Constant
  81. Bit rate : 192 Kbps
  82. Channel(s) : 2 channels
  83. Channel positions : Front: L R
  84. Sampling rate : 48.0 KHz
  85. Compression mode : Lossy
  86. Stream size : 109 MiB (7%)
  87. Alignment : Aligned on interleaves
  88. Interleave, duration : 64 ms (1.54 video frames)
  89. Interleave, preload duration : 192 ms
  90.  
  91. Audio #4
  92. ID : 4
  93. Format : MPEG Audio
  94. Format version : Version 1
  95. Format profile : Layer 3
  96. Mode : Joint stereo
  97. Mode extension : MS Stereo
  98. Codec ID : 55
  99. Codec ID/Hint : MP3
  100. Duration : 1h 19mn
  101. Bit rate mode : Constant
  102. Bit rate : 160 Kbps
  103. Channel(s) : 2 channels
  104. Sampling rate : 48.0 KHz
  105. Compression mode : Lossy
  106. Stream size : 90.5 MiB (6%)
  107. Alignment : Aligned on interleaves
  108. Interleave, duration : 46 ms (1.11 video frame)
  109. Interleave, preload duration : 216 ms
  110. Title : I Hired a Contract Killer.avi_track_3_english
  111. Writing library : LAME3.99r
  112. Encoding settings : -m j -V 4 -q 2 -lowpass 17.5 -b 160
Advertisement
RAW Paste Data Copied
Advertisement