GrabHD

Untitled

Feb 27th, 2020
211
Never
Not a member of Pastebin yet? Sign Up, it unlocks many cool features!
  1. Общее
  2. Уникальный идентификатор : 198032048119223984377991937533362345348 (0x94FB95CBDFA658F4BA8A33EAABB49584)
  3. Полное имя : D:\Раздача\Holop.2019.WEB-DLRip-AVC.grab777.mkv
  4. Формат : Matroska
  5. Версия формата : Version 4 / Version 2
  6. Размер файла : 2,38 Гбайт
  7. Продолжительность : 1 ч. 43 м.
  8. Общий поток : 3281 Кбит/сек
  9. Название фильма : Холоп 2019 WEB-DLRip-AVC grab777
  10. Дата кодирования : UTC 2020-02-27 17:05:38
  11. Программа кодирования : mkvmerge v7.3.0 ('Nouages') 64bit built on Oct 22 2014 18:53:34
  12. Библиотека кодирования : libebml v1.3.0 + libmatroska v1.4.1
  13.  
  14. Видео
  15. Идентификатор : 1
  16. Формат : AVC
  17. Формат/Информация : Advanced Video Codec
  18. Профиль формата : High@L4.1
  19. Настройки формата : CABAC / 12 Ref Frames
  20. Параметр CABAC формата : Да
  21. Параметр RefFrames формата : 12 кадров
  22. Идентификатор кодека : V_MPEG4/ISO/AVC
  23. Продолжительность : 1 ч. 43 м.
  24. Битрейт : 2896 Кбит/сек
  25. Ширина : 1024 пикселя
  26. Высота : 432 пикселя
  27. Соотношение сторон : 2,40:1
  28. Соотношение сторон в оригинале : 2,40:1
  29. Режим частоты кадров : Постоянный
  30. Частота кадров : 25,000 кадров/сек
  31. Цветовое пространство : YUV
  32. Субдискретизация насыщенности : 4:2:0
  33. Битовая глубина : 8 бит
  34. Тип развёртки : Прогрессивная
  35. Бит/(Пиксели*Кадры) : 0.262
  36. Размер потока : 2,10 Гбайт (88%)
  37. Заголовок : Rip by grab777
  38. Библиотека кодирования : x264 core 148 r2665M a01e339
  39. Настройки программы : cabac=1 / ref=12 / deblock=1:-2:-2 / analyse=0x3:0x133 / me=umh / subme=10 / psy=1 / psy_rd=1.00:0.15 / mixed_ref=1 / me_range=32 / chroma_me=1 / trellis=2 / 8x8dct=1 / cqm=0 / deadzone=21,11 / fast_pskip=0 / chroma_qp_offset=-3 / threads=5 / lookahead_threads=1 / sliced_threads=0 / nr=0 / decimate=1 / interlaced=0 / bluray_compat=0 / constrained_intra=0 / bframes=10 / b_pyramid=2 / b_adapt=2 / b_bias=0 / direct=3 / weightb=1 / open_gop=0 / weightp=2 / keyint=250 / keyint_min=25 / scenecut=40 / intra_refresh=0 / rc_lookahead=40 / rc=crf / mbtree=1 / crf=16.6 / qcomp=0.90 / qpmin=3 / qpmax=69 / qpstep=4 / vbv_maxrate=40000 / vbv_bufsize=30000 / crf_max=31.0 / nal_hrd=none / filler=0 / ip_ratio=1.40 / aq=1:0.00
  40. Язык : English
  41. Default : Да
  42. Forced : Нет
  43. Цветовой диапазон : Limited
  44. Основные цвета : BT.709
  45. Характеристики трансфера : BT.709
  46. Коэффициенты матрицы : BT.709
  47.  
  48. Аудио
  49. Идентификатор : 2
  50. Формат : AC-3
  51. Формат/Информация : Audio Coding 3
  52. Параметр Endianness формата : Big
  53. Идентификатор кодека : A_AC3
  54. Продолжительность : 1 ч. 43 м.
  55. Вид битрейта : Постоянный
  56. Битрейт : 384 Кбит/сек
  57. Каналы : 6 каналов
  58. Расположение каналов : Front: L C R, Side: L R, LFE
  59. Частота : 48,0 КГц
  60. Частота кадров : 31,250 кадров/сек (1536 SPF)
  61. Битовая глубина : 16 бит
  62. Метод сжатия : С потерями
  63. Размер потока : 285 Мбайт (12%)
  64. Заголовок : Original (iTunes)
  65. ServiceKind/String : Complete Main
  66. Default : Да
  67. Forced : Да
  68.  
  69. Меню
  70. 00:00:00.000 : :Глава 1
  71. 00:08:23.520 : :Глава 2
  72. 00:16:44.880 : :Глава 3
  73. 00:25:31.520 : :Глава 4
  74. 00:33:46.359 : :Глава 5
  75. 00:42:31.439 : :Глава 6
  76. 00:51:06.198 : :Глава 7
  77. 01:00:10.758 : :Глава 8
  78. 01:08:31.158 : :Глава 9
  79. 01:16:36.357 : :Глава 10
  80. 01:24:44.636 : :Глава 11
  81. 01:32:56.276 : :Глава 12
RAW Paste Data