Guest User

About.Last.Night.2014.1080p.BluRay.REMUX.AVC.DTS-HD.MA.5.1-EPSiLON

a guest
May 28th, 2019
121
Never
Not a member of Pastebin yet? Sign Up, it unlocks many cool features!
  1. General
  2. Complete name                            : About.Last.Night.2014.1080p.BluRay.REMUX.AVC.DTS-HD.MA.5.1-EPSiLON.mkv
  3. Format                                   : Matroska
  4. Format version                           : Version 4
  5. File size                                : 20.5 GiB
  6. Duration                                 : 1 h 40 min
  7. Overall bit rate mode                    : Variable
  8. Overall bit rate                         : 29.3 Mb/s
  9. Encoded date                             : UTC 2019-03-27 14:22:54
  10. Writing application                      : mkvmerge v32.0.0 ('Astral Progressions') 64-bit
  11. Writing library                          : libebml v1.3.7 + libmatroska v1.5.0
  12. IMDB                                     : tt1826590
  13. TMDB                                     : movie/222899
  14.  
  15. Video
  16. ID                                       : 1
  17. Format                                   : AVC
  18. Format/Info                              : Advanced Video Codec
  19. Format profile                           : High@L4.1
  20. Format settings                          : CABAC / 2 Ref Frames
  21. Format settings, CABAC                   : Yes
  22. Format settings, Reference frames        : 2 frames
  23. Codec ID                                 : V_MPEG4/ISO/AVC
  24. Duration                                 : 1 h 40 min
  25. Bit rate mode                            : Variable
  26. Bit rate                                 : 26.9 Mb/s
  27. Width                                    : 1 920 pixels
  28. Height                                   : 1 080 pixels
  29. Display aspect ratio                     : 16:9
  30. Frame rate mode                          : Constant
  31. Frame rate                               : 23.976 (24000/1001) FPS
  32. Color space                              : YUV
  33. Chroma subsampling                       : 4:2:0
  34. Bit depth                                : 8 bits
  35. Scan type                                : Progressive
  36. Bits/(Pixel*Frame)                       : 0.541
  37. Stream size                              : 18.8 GiB (92%)
  38. Title                                    : MPEG-4 AVC Video / 26906 kbps / 1080p / 23.976 fps / 16:9 / High Profile 4.1
  39. Language                                 : English
  40. Default                                  : Yes
  41. Forced                                   : No
  42.  
  43. Audio
  44. ID                                       : 2
  45. Format                                   : DTS XLL
  46. Format/Info                              : Digital Theater Systems
  47. Commercial name                          : DTS-HD Master Audio
  48. Codec ID                                 : A_DTS
  49. Duration                                 : 1 h 40 min
  50. Bit rate mode                            : Variable
  51. Bit rate                                 : 2 160 kb/s
  52. Channel(s)                               : 6 channels
  53. Channel layout                           : C L R Ls Rs LFE
  54. Sampling rate                            : 48.0 kHz
  55. Frame rate                               : 93.750 FPS (512 SPF)
  56. Bit depth                                : 16 bits
  57. Compression mode                         : Lossless
  58. Stream size                              : 1.51 GiB (7%)
  59. Title                                    : DTS-HD Master Audio / 5.1 / 48 kHz / 2160 kbps / 16-bit
  60. Language                                 : English
  61. Default                                  : Yes
  62. Forced                                   : No
  63.  
  64. Text #1
  65. ID                                       : 3
  66. Format                                   : PGS
  67. Codec ID                                 : S_HDMV/PGS
  68. Codec ID/Info                            : Picture based subtitle format used on BDs/HD-DVDs
  69. Duration                                 : 1 h 35 min
  70. Bit rate                                 : 65.1 kb/s
  71. Count of elements                        : 4012
  72. Stream size                              : 44.5 MiB (0%)
  73. Language                                 : English
  74. Default                                  : No
  75. Forced                                   : No
  76.  
  77. Text #2
  78. ID                                       : 4
  79. Format                                   : PGS
  80. Codec ID                                 : S_HDMV/PGS
  81. Codec ID/Info                            : Picture based subtitle format used on BDs/HD-DVDs
  82. Duration                                 : 1 h 37 min
  83. Bit rate                                 : 61.3 kb/s
  84. Count of elements                        : 5182
  85. Stream size                              : 42.6 MiB (0%)
  86. Title                                    : SDH
  87. Language                                 : English
  88. Default                                  : No
  89. Forced                                   : No
  90.  
  91. Text #3
  92. ID                                       : 5
  93. Format                                   : PGS
  94. Codec ID                                 : S_HDMV/PGS
  95. Codec ID/Info                            : Picture based subtitle format used on BDs/HD-DVDs
  96. Duration                                 : 1 h 39 min
  97. Bit rate                                 : 46.6 kb/s
  98. Count of elements                        : 4040
  99. Stream size                              : 33.0 MiB (0%)
  100. Language                                 : French
  101. Default                                  : No
  102. Forced                                   : No
  103.  
  104. Text #4
  105. ID                                       : 6
  106. Format                                   : PGS
  107. Codec ID                                 : S_HDMV/PGS
  108. Codec ID/Info                            : Picture based subtitle format used on BDs/HD-DVDs
  109. Duration                                 : 1 h 39 min
  110. Bit rate                                 : 47.9 kb/s
  111. Count of elements                        : 3848
  112. Stream size                              : 33.9 MiB (0%)
  113. Title                                    : Latin American
  114. Language                                 : Spanish
  115. Default                                  : No
  116. Forced                                   : No
  117.  
  118. Menu
  119. 00:00:00.000                             : en:Chapter 1
  120. 00:04:21.052                             : en:Chapter 2
  121. 00:10:19.244                             : en:Chapter 3
  122. 00:16:42.251                             : en:Chapter 4
  123. 00:23:14.059                             : en:Chapter 5
  124. 00:29:32.187                             : en:Chapter 6
  125. 00:36:11.211                             : en:Chapter 7
  126. 00:42:07.900                             : en:Chapter 8
  127. 00:47:57.666                             : en:Chapter 9
  128. 00:53:35.921                             : en:Chapter 10
  129. 00:59:30.942                             : en:Chapter 11
  130. 01:08:32.233                             : en:Chapter 12
  131. 01:14:19.163                             : en:Chapter 13
  132. 01:19:58.419                             : en:Chapter 14
  133. 01:25:22.034                             : en:Chapter 15
  134. 01:31:13.093                             : en:Chapter 16
RAW Paste Data