iMN0

The.Equalizer.2.2018.BluRay.1080p.DTS-HD.MA.7.1.AVC.REMUX-FraMeSToR.mkv

Jul 3rd, 2021
75
Never
Not a member of Pastebin yet? Sign Up, it unlocks many cool features!
  1. General
  2. Unique ID : 241036141363054045753138801821906866927 (0xB555DF4AAA8D37715667B7B7363392EF)
  3. Complete name : The.Equalizer.2.2018.BluRay.1080p.DTS-HD.MA.7.1.AVC.REMUX-FraMeSToR.mkv
  4. Format : Matroska
  5. Format version : Version 4
  6. File size : 21.6 GiB
  7. Duration : 2 h 0 min
  8. Overall bit rate mode : Variable
  9. Overall bit rate : 25.6 Mb/s
  10. Movie name : The Equalizer 2
  11. Encoded date : UTC 2018-11-12 11:02:22
  12. Writing application : mkvmerge v28.2.0 ('The Awakening') 64-bit
  13. Writing library : libebml v1.3.6 + libmatroska v1.4.9
  14.  
  15. Video
  16. ID : 1
  17. Format : AVC
  18. Format/Info : Advanced Video Codec
  19. Format profile : High@L4.1
  20. Format settings : CABAC / 2 Ref Frames
  21. Format settings, CABAC : Yes
  22. Format settings, Reference frames : 2 frames
  23. Format settings, GOP : M=1, N=10
  24. Codec ID : V_MPEG4/ISO/AVC
  25. Duration : 2 h 0 min
  26. Bit rate mode : Variable
  27. Bit rate : 22.7 Mb/s
  28. Width : 1 920 pixels
  29. Height : 1 080 pixels
  30. Display aspect ratio : 16:9
  31. Frame rate mode : Constant
  32. Frame rate : 23.976 (24000/1001) FPS
  33. Color space : YUV
  34. Chroma subsampling : 4:2:0
  35. Bit depth : 8 bits
  36. Scan type : Progressive
  37. Bits/(Pixel*Frame) : 0.458
  38. Stream size : 19.2 GiB (89%)
  39. Default : Yes
  40. Forced : No
  41.  
  42. Audio
  43. ID : 2
  44. Format : DTS XLL
  45. Format/Info : Digital Theater Systems
  46. Commercial name : DTS-HD Master Audio
  47. Codec ID : A_DTS
  48. Duration : 2 h 0 min
  49. Bit rate mode : Variable
  50. Bit rate : 2 733 kb/s
  51. Channel(s) : 8 channels
  52. Channel layout : C L R LFE Lb Rb Lss Rss
  53. Sampling rate : 48.0 kHz
  54. Frame rate : 93.750 FPS (512 SPF)
  55. Bit depth : 16 bits
  56. Compression mode : Lossless
  57. Stream size : 2.31 GiB (11%)
  58. Title : DTS-HD MA 7.1
  59. Language : English
  60. Default : Yes
  61. Forced : No
  62.  
  63. Text #1
  64. ID : 3
  65. Format : PGS
  66. Codec ID : S_HDMV/PGS
  67. Codec ID/Info : Picture based subtitle format used on BDs/HD-DVDs
  68. Duration : 41 min 15 s
  69. Bit rate : 415 b/s
  70. Count of elements : 22
  71. Stream size : 126 KiB (0%)
  72. Title : English (Forced only)
  73. Language : English
  74. Default : Yes
  75. Forced : Yes
  76.  
  77. Text #2
  78. ID : 4
  79. Format : PGS
  80. Codec ID : S_HDMV/PGS
  81. Codec ID/Info : Picture based subtitle format used on BDs/HD-DVDs
  82. Duration : 1 h 56 min
  83. Bit rate : 23.0 kb/s
  84. Count of elements : 2090
  85. Stream size : 19.2 MiB (0%)
  86. Title : English
  87. Language : English
  88. Default : No
  89. Forced : No
  90.  
  91. Text #3
  92. ID : 5
  93. Format : PGS
  94. Codec ID : S_HDMV/PGS
  95. Codec ID/Info : Picture based subtitle format used on BDs/HD-DVDs
  96. Duration : 1 h 58 min
  97. Bit rate : 28.0 kb/s
  98. Count of elements : 2638
  99. Stream size : 23.8 MiB (0%)
  100. Title : English (SDH)
  101. Language : English
  102. Default : No
  103. Forced : No
  104.  
  105. Text #4
  106. ID : 6
  107. Format : PGS
  108. Codec ID : S_HDMV/PGS
  109. Codec ID/Info : Picture based subtitle format used on BDs/HD-DVDs
  110. Duration : 1 h 59 min
  111. Bit rate : 20.5 kb/s
  112. Count of elements : 2000
  113. Stream size : 17.6 MiB (0%)
  114. Title : Portuguese (Brazilian)
  115. Language : Portuguese
  116. Default : No
  117. Forced : No
  118.  
  119. Menu
  120. 00:00:00.000 : en:Chapter 01
  121. 00:06:50.035 : en:Chapter 02
  122. 00:13:22.635 : en:Chapter 03
  123. 00:16:43.461 : en:Chapter 04
  124. 00:27:10.921 : en:Chapter 05
  125. 00:34:05.460 : en:Chapter 06
  126. 00:41:05.546 : en:Chapter 07
  127. 00:47:08.617 : en:Chapter 08
  128. 00:54:17.337 : en:Chapter 09
  129. 01:02:17.817 : en:Chapter 10
  130. 01:11:18.733 : en:Chapter 11
  131. 01:18:39.131 : en:Chapter 12
  132. 01:25:19.948 : en:Chapter 13
  133. 01:31:40.245 : en:Chapter 14
  134. 01:40:10.337 : en:Chapter 15
  135. 01:52:14.728 : en:Chapter 16
RAW Paste Data