SHARE
TWEET

Untitled

a guest Oct 20th, 2019 141 Never
Not a member of Pastebin yet? Sign Up, it unlocks many cool features!
  1. General
  2. Unique ID                                : 209665646697769393703246051429847683631 (0x9DBC227D9063923AF311146000C8522F)
  3. Complete name                            : watchmen\Watchmen.2019.S01E01.720p.WEB.H264-STARZ
  4. Format                                   : Matroska
  5. Format version                           : Version 4
  6. File size                                : 836 MiB
  7. Duration                                 : 1 h 2 min
  8. Overall bit rate                         : 1 879 kb/s
  9. Encoded date                             : UTC 2019-10-21 01:00:33
  10. Writing application                      : mkvmerge v37.0.0 ('Leave It') 64-bit
  11. Writing library                          : libebml v1.3.9 + libmatroska v1.5.2
  12.  
  13. Video
  14. ID                                       : 1
  15. Format                                   : AVC
  16. Format/Info                              : Advanced Video Codec
  17. Format profile                           : High@L3.1
  18. Format settings                          : CABAC / 5 Ref Frames
  19. Format settings, CABAC                   : Yes
  20. Format settings, Reference frames        : 5 frames
  21. Codec ID                                 : V_MPEG4/ISO/AVC
  22. Duration                                 : 1 h 2 min
  23. Bit rate                                 : 1 622 kb/s
  24. Width                                    : 1 280 pixels
  25. Height                                   : 720 pixels
  26. Display aspect ratio                     : 16:9
  27. Frame rate mode                          : Constant
  28. Frame rate                               : 23.976 (24000/1001) FPS
  29. Color space                              : YUV
  30. Chroma subsampling                       : 4:2:0
  31. Bit depth                                : 8 bits
  32. Scan type                                : Progressive
  33. Bits/(Pixel*Frame)                       : 0.073
  34. Stream size                              : 721 MiB (86%)
  35. Language                                 : English
  36. Default                                  : Yes
  37. Forced                                   : No
  38.  
  39. Audio
  40. ID                                       : 2
  41. Format                                   : E-AC-3
  42. Format/Info                              : Enhanced AC-3
  43. Commercial name                          : Dolby Digital Plus
  44. Codec ID                                 : A_EAC3
  45. Duration                                 : 1 h 2 min
  46. Bit rate mode                            : Constant
  47. Bit rate                                 : 256 kb/s
  48. Channel(s)                               : 6 channels
  49. Channel layout                           : L R C LFE Ls Rs
  50. Sampling rate                            : 48.0 kHz
  51. Frame rate                               : 31.250 FPS (1536 SPF)
  52. Compression mode                         : Lossy
  53. Delay relative to video                  : 15 ms
  54. Stream size                              : 114 MiB (14%)
  55. Language                                 : English
  56. Service kind                             : Complete Main
  57. Default                                  : Yes
  58. Forced                                   : No
  59.  
  60. Text
  61. ID                                       : 3
  62. Format                                   : UTF-8
  63. Codec ID                                 : S_TEXT/UTF8
  64. Codec ID/Info                            : UTF-8 Plain Text
  65. Duration                                 : 1 h 1 min
  66. Bit rate                                 : 52 b/s
  67. Count of elements                        : 788
  68. Stream size                              : 24.0 KiB (0%)
  69. Title                                    : English
  70. Language                                 : English
  71. Default                                  : No
  72. Forced                                   : No
RAW Paste Data
We use cookies for various purposes including analytics. By continuing to use Pastebin, you agree to our use of cookies as described in the Cookies Policy. OK, I Understand
Top