daily pastebin goal
86%
SHARE
TWEET

Untitled

a guest Jan 12th, 2018 116 Never
Not a member of Pastebin yet? Sign Up, it unlocks many cool features!
  1. General
  2. Unique ID                                : 220337507499486039087869895266321172361 (0xA5C375D9EC4830E29845C804303A0789)
  3. Complete name                            : The Last Samurai 2003 (1080p x265 10bit Tigole).mkv
  4. Format                                   : Matroska
  5. Format version                           : Version 4 / Version 2
  6. File size                                : 3.45 GiB
  7. Duration                                 : 2 h 34 min
  8. Overall bit rate                         : 3 199 kb/s
  9. Encoded date                             : UTC 2017-03-16 08:44:05
  10. Writing application                      : mkvmerge v9.6.0 ('Slave To Your Mind') 64bit
  11. Writing library                          : libebml v1.3.4 + libmatroska v1.4.5
  12.  
  13. Video
  14. ID                                       : 1
  15. Format                                   : HEVC
  16. Format/Info                              : High Efficiency Video Coding
  17. Format profile                           : Main 10@L4@Main
  18. Codec ID                                 : V_MPEGH/ISO/HEVC
  19. Duration                                 : 2 h 34 min
  20. Bit rate                                 : 2 737 kb/s
  21. Width                                    : 1 920 pixels
  22. Height                                   : 792 pixels
  23. Display aspect ratio                     : 2.40:1
  24. Frame rate mode                          : Constant
  25. Frame rate                               : 23.976 (24000/1001) FPS
  26. Color space                              : YUV
  27. Chroma subsampling                       : 4:2:0
  28. Bit depth                                : 10 bits
  29. Bits/(Pixel*Frame)                       : 0.075
  30. Stream size                              : 2.95 GiB (86%)
  31. Writing library                          : x265 2.3+22-db5e22b856f5:[Windows][GCC 6.3.0][64 bit] 10bit
  32. Encoding settings                        : cpuid=1173503 / frame-threads=3 / numa-pools=8 / wpp / no-pmode / no-pme / no-psnr / no-ssim / log-level=2 / input-csp=1 / input-res=1920x792 / interlace=0 / total-frames=221807 / level-idc=0 / high-tier=1 / uhd-bd=0 / ref=3 / no-allow-non-conformance / no-repeat-headers / annexb / no-aud / no-hrd / info / hash=0 / no-temporal-layers / open-gop / min-keyint=23 / keyint=250 / bframes=4 / b-adapt=2 / b-pyramid / bframe-bias=0 / rc-lookahead=20 / lookahead-slices=5 / scenecut=40 / no-intra-refresh / ctu=64 / min-cu-size=8 / no-rect / no-amp / max-tu-size=32 / tu-inter-depth=1 / tu-intra-depth=1 / limit-tu=0 / rdoq-level=0 / dynamic-rd=0.00 / signhide / no-tskip / nr-intra=0 / nr-inter=0 / no-constrained-intra / strong-intra-smoothing / max-merge=2 / limit-refs=3 / no-limit-modes / me=1 / subme=2 / merange=57 / temporal-mvp / weightp / no-weightb / no-analyze-src-pics / deblock=0:0 / sao / no-sao-non-deblock / rd=3 / no-early-skip / rskip / no-fast-intra / no-tskip-fast / no-cu-lossless / no-b-intra / rdpenalty=0 / psy-rd=2.00 / psy-rdoq=0.00 / no-rd-refine / analysis-mode=0 / no-lossless / cbqpoffs=0 / crqpoffs=0 / rc=abr / bitrate=2737 / qcomp=0.60 / qpstep=4 / stats-write=0 / stats-read=2 / cplxblur=20.0 / qblur=0.5 / ipratio=1.40 / pbratio=1.30 / aq-mode=2 / aq-strength=1.00 / cutree / zone-count=0 / no-strict-cbr / qg-size=32 / no-rc-grain / qpmax=69 / qpmin=0 / sar=0 / overscan=0 / videoformat=5 / range=0 / colorprim=2 / transfer=2 / colormatrix=2 / chromaloc=0 / display-window=0 / max-cll=0,0 / min-luma=0 / max-luma=1023 / log2-max-poc-lsb=8 / vui-timing-info / vui-hrd-info / slices=1 / opt-qp-pps / opt-ref-list-length-pps / no-multi-pass-opt-rps / scenecut-bias=0.05 / no-opt-cu-delta-qp / no-aq-motion / no-hdr / no-hdr-opt / refine-level=5
  33. Default                                  : Yes
  34. Forced                                   : No
  35.  
  36. Audio #1
  37. ID                                       : 2
  38. Format                                   : AAC
  39. Format/Info                              : Advanced Audio Codec
  40. Format profile                           : LC
  41. Codec ID                                 : A_AAC
  42. Duration                                 : 2 h 34 min
  43. Bit rate                                 : 329 kb/s
  44. Channel(s)                               : 6 channels
  45. Channel positions                        : Front: L C R, Side: L R, LFE
  46. Sampling rate                            : 48.0 kHz
  47. Frame rate                               : 46.875 FPS (1024 SPF)
  48. Compression mode                         : Lossy
  49. Delay relative to video                  : 20 ms
  50. Stream size                              : 363 MiB (10%)
  51. Language                                 : English
  52. Default                                  : Yes
  53. Forced                                   : No
  54.  
  55. Audio #2
  56. ID                                       : 3
  57. Format                                   : AAC
  58. Format/Info                              : Advanced Audio Codec
  59. Format profile                           : HE-AAC / LC
  60. Codec ID                                 : A_AAC
  61. Duration                                 : 2 h 34 min
  62. Bit rate                                 : 66.2 kb/s
  63. Channel(s)                               : 2 channels
  64. Channel positions                        : Front: L R
  65. Sampling rate                            : 48.0 kHz / 24.0 kHz
  66. Frame rate                               : 23.438 FPS (1024 SPF)
  67. Compression mode                         : Lossy
  68. Delay relative to video                  : 40 ms
  69. Stream size                              : 72.5 MiB (2%)
  70. Title                                    : Commentary
  71. Language                                 : English
  72. Default                                  : No
  73. Forced                                   : No
  74.  
  75. Text #1
  76. ID                                       : 4
  77. Format                                   : VobSub
  78. Muxing mode                              : zlib
  79. Codec ID                                 : S_VOBSUB
  80. Codec ID/Info                            : Picture based subtitle format used on DVDs
  81. Duration                                 : 2 h 33 min
  82. Bit rate                                 : 3 314 b/s
  83. Count of elements                        : 1082
  84. Stream size                              : 3.64 MiB (0%)
  85. Language                                 : English
  86. Default                                  : No
  87. Forced                                   : No
  88.  
  89. Text #2
  90. ID                                       : 5
  91. Format                                   : VobSub
  92. Muxing mode                              : zlib
  93. Codec ID                                 : S_VOBSUB
  94. Codec ID/Info                            : Picture based subtitle format used on DVDs
  95. Duration                                 : 2 h 19 min
  96. Bit rate                                 : 544 b/s
  97. Count of elements                        : 195
  98. Stream size                              : 558 KiB (0%)
  99. Title                                    : Forced
  100. Language                                 : English
  101. Default                                  : No
  102. Forced                                   : Yes
  103.  
  104. Text #3
  105. ID                                       : 6
  106. Format                                   : VobSub
  107. Muxing mode                              : zlib
  108. Codec ID                                 : S_VOBSUB
  109. Codec ID/Info                            : Picture based subtitle format used on DVDs
  110. Duration                                 : 2 h 33 min
  111. Bit rate                                 : 2 140 b/s
  112. Count of elements                        : 940
  113. Stream size                              : 2.35 MiB (0%)
  114. Language                                 : Arabic
  115. Default                                  : No
  116. Forced                                   : No
  117.  
  118. Text #4
  119. ID                                       : 7
  120. Format                                   : VobSub
  121. Muxing mode                              : zlib
  122. Codec ID                                 : S_VOBSUB
  123. Codec ID/Info                            : Picture based subtitle format used on DVDs
  124. Duration                                 : 2 h 33 min
  125. Bit rate                                 : 2 797 b/s
  126. Count of elements                        : 947
  127. Stream size                              : 3.08 MiB (0%)
  128. Language                                 : Bulgarian
  129. Default                                  : No
  130. Forced                                   : No
  131.  
  132. Text #5
  133. ID                                       : 8
  134. Format                                   : VobSub
  135. Muxing mode                              : zlib
  136. Codec ID                                 : S_VOBSUB
  137. Codec ID/Info                            : Picture based subtitle format used on DVDs
  138. Duration                                 : 2 h 33 min
  139. Bit rate                                 : 2 823 b/s
  140. Count of elements                        : 935
  141. Stream size                              : 3.10 MiB (0%)
  142. Language                                 : Chinese
  143. Default                                  : No
  144. Forced                                   : No
  145.  
  146. Text #6
  147. ID                                       : 9
  148. Format                                   : VobSub
  149. Muxing mode                              : zlib
  150. Codec ID                                 : S_VOBSUB
  151. Codec ID/Info                            : Picture based subtitle format used on DVDs
  152. Duration                                 : 2 h 33 min
  153. Bit rate                                 : 2 754 b/s
  154. Count of elements                        : 928
  155. Stream size                              : 3.03 MiB (0%)
  156. Language                                 : Croatian
  157. Default                                  : No
  158. Forced                                   : No
  159.  
  160. Text #7
  161. ID                                       : 10
  162. Format                                   : VobSub
  163. Muxing mode                              : zlib
  164. Codec ID                                 : S_VOBSUB
  165. Codec ID/Info                            : Picture based subtitle format used on DVDs
  166. Duration                                 : 2 h 33 min
  167. Bit rate                                 : 2 408 b/s
  168. Count of elements                        : 815
  169. Stream size                              : 2.65 MiB (0%)
  170. Language                                 : Czech
  171. Default                                  : No
  172. Forced                                   : No
  173.  
  174. Text #8
  175. ID                                       : 11
  176. Format                                   : VobSub
  177. Muxing mode                              : zlib
  178. Codec ID                                 : S_VOBSUB
  179. Codec ID/Info                            : Picture based subtitle format used on DVDs
  180. Duration                                 : 2 h 33 min
  181. Bit rate                                 : 2 558 b/s
  182. Count of elements                        : 716
  183. Stream size                              : 2.81 MiB (0%)
  184. Language                                 : Estonian
  185. Default                                  : No
  186. Forced                                   : No
  187.  
  188. Text #9
  189. ID                                       : 12
  190. Format                                   : VobSub
  191. Muxing mode                              : zlib
  192. Codec ID                                 : S_VOBSUB
  193. Codec ID/Info                            : Picture based subtitle format used on DVDs
  194. Duration                                 : 2 h 33 min
  195. Bit rate                                 : 2 632 b/s
  196. Count of elements                        : 882
  197. Stream size                              : 2.89 MiB (0%)
  198. Language                                 : Greek
  199. Default                                  : No
  200. Forced                                   : No
  201.  
  202. Text #10
  203. ID                                       : 13
  204. Format                                   : VobSub
  205. Muxing mode                              : zlib
  206. Codec ID                                 : S_VOBSUB
  207. Codec ID/Info                            : Picture based subtitle format used on DVDs
  208. Duration                                 : 2 h 33 min
  209. Bit rate                                 : 2 524 b/s
  210. Count of elements                        : 940
  211. Stream size                              : 2.78 MiB (0%)
  212. Language                                 : Hebrew
  213. Default                                  : No
  214. Forced                                   : No
  215.  
  216. Text #11
  217. ID                                       : 14
  218. Format                                   : VobSub
  219. Muxing mode                              : zlib
  220. Codec ID                                 : S_VOBSUB
  221. Codec ID/Info                            : Picture based subtitle format used on DVDs
  222. Duration                                 : 2 h 33 min
  223. Bit rate                                 : 2 498 b/s
  224. Count of elements                        : 844
  225. Stream size                              : 2.75 MiB (0%)
  226. Language                                 : Hungarian
  227. Default                                  : No
  228. Forced                                   : No
  229.  
  230. Text #12
  231. ID                                       : 15
  232. Format                                   : VobSub
  233. Muxing mode                              : zlib
  234. Codec ID                                 : S_VOBSUB
  235. Codec ID/Info                            : Picture based subtitle format used on DVDs
  236. Duration                                 : 2 h 33 min
  237. Bit rate                                 : 2 897 b/s
  238. Count of elements                        : 930
  239. Stream size                              : 3.19 MiB (0%)
  240. Language                                 : Icelandic
  241. Default                                  : No
  242. Forced                                   : No
  243.  
  244. Text #13
  245. ID                                       : 16
  246. Format                                   : VobSub
  247. Muxing mode                              : zlib
  248. Codec ID                                 : S_VOBSUB
  249. Codec ID/Info                            : Picture based subtitle format used on DVDs
  250. Duration                                 : 2 h 33 min
  251. Bit rate                                 : 3 062 b/s
  252. Count of elements                        : 928
  253. Stream size                              : 3.37 MiB (0%)
  254. Language                                 : Indonesian
  255. Default                                  : No
  256. Forced                                   : No
  257.  
  258. Text #14
  259. ID                                       : 17
  260. Format                                   : VobSub
  261. Muxing mode                              : zlib
  262. Codec ID                                 : S_VOBSUB
  263. Codec ID/Info                            : Picture based subtitle format used on DVDs
  264. Duration                                 : 2 h 33 min
  265. Bit rate                                 : 1 835 b/s
  266. Count of elements                        : 929
  267. Stream size                              : 2.02 MiB (0%)
  268. Language                                 : Korean
  269. Default                                  : No
  270. Forced                                   : No
  271.  
  272. Text #15
  273. ID                                       : 18
  274. Format                                   : VobSub
  275. Muxing mode                              : zlib
  276. Codec ID                                 : S_VOBSUB
  277. Codec ID/Info                            : Picture based subtitle format used on DVDs
  278. Duration                                 : 2 h 33 min
  279. Bit rate                                 : 2 527 b/s
  280. Count of elements                        : 928
  281. Stream size                              : 2.78 MiB (0%)
  282. Language                                 : Latvian
  283. Default                                  : No
  284. Forced                                   : No
  285.  
  286. Text #16
  287. ID                                       : 19
  288. Format                                   : VobSub
  289. Muxing mode                              : zlib
  290. Codec ID                                 : S_VOBSUB
  291. Codec ID/Info                            : Picture based subtitle format used on DVDs
  292. Duration                                 : 2 h 33 min
  293. Bit rate                                 : 2 785 b/s
  294. Count of elements                        : 946
  295. Stream size                              : 3.06 MiB (0%)
  296. Language                                 : Lithuanian
  297. Default                                  : No
  298. Forced                                   : No
  299.  
  300. Text #17
  301. ID                                       : 20
  302. Format                                   : VobSub
  303. Muxing mode                              : zlib
  304. Codec ID                                 : S_VOBSUB
  305. Codec ID/Info                            : Picture based subtitle format used on DVDs
  306. Duration                                 : 2 h 33 min
  307. Bit rate                                 : 2 441 b/s
  308. Count of elements                        : 881
  309. Stream size                              : 2.68 MiB (0%)
  310. Language                                 : Polish
  311. Default                                  : No
  312. Forced                                   : No
  313.  
  314. Text #18
  315. ID                                       : 21
  316. Format                                   : VobSub
  317. Muxing mode                              : zlib
  318. Codec ID                                 : S_VOBSUB
  319. Codec ID/Info                            : Picture based subtitle format used on DVDs
  320. Duration                                 : 2 h 33 min
  321. Bit rate                                 : 2 988 b/s
  322. Count of elements                        : 922
  323. Stream size                              : 3.29 MiB (0%)
  324. Language                                 : Portuguese
  325. Default                                  : No
  326. Forced                                   : No
  327.  
  328. Text #19
  329. ID                                       : 22
  330. Format                                   : VobSub
  331. Muxing mode                              : zlib
  332. Codec ID                                 : S_VOBSUB
  333. Codec ID/Info                            : Picture based subtitle format used on DVDs
  334. Duration                                 : 2 h 33 min
  335. Bit rate                                 : 2 605 b/s
  336. Count of elements                        : 808
  337. Stream size                              : 2.86 MiB (0%)
  338. Language                                 : Romanian
  339. Default                                  : No
  340. Forced                                   : No
  341.  
  342. Text #20
  343. ID                                       : 23
  344. Format                                   : VobSub
  345. Muxing mode                              : zlib
  346. Codec ID                                 : S_VOBSUB
  347. Codec ID/Info                            : Picture based subtitle format used on DVDs
  348. Duration                                 : 2 h 33 min
  349. Bit rate                                 : 2 837 b/s
  350. Count of elements                        : 928
  351. Stream size                              : 3.12 MiB (0%)
  352. Language                                 : Russian
  353. Default                                  : No
  354. Forced                                   : No
  355.  
  356. Text #21
  357. ID                                       : 24
  358. Format                                   : VobSub
  359. Muxing mode                              : zlib
  360. Codec ID                                 : S_VOBSUB
  361. Codec ID/Info                            : Picture based subtitle format used on DVDs
  362. Duration                                 : 2 h 33 min
  363. Bit rate                                 : 2 729 b/s
  364. Count of elements                        : 924
  365. Stream size                              : 3.00 MiB (0%)
  366. Language                                 : Serbian
  367. Default                                  : No
  368. Forced                                   : No
  369.  
  370. Text #22
  371. ID                                       : 25
  372. Format                                   : VobSub
  373. Muxing mode                              : zlib
  374. Codec ID                                 : S_VOBSUB
  375. Codec ID/Info                            : Picture based subtitle format used on DVDs
  376. Duration                                 : 2 h 33 min
  377. Bit rate                                 : 2 152 b/s
  378. Count of elements                        : 772
  379. Stream size                              : 2.37 MiB (0%)
  380. Language                                 : Slovenian
  381. Default                                  : No
  382. Forced                                   : No
  383.  
  384. Text #23
  385. ID                                       : 26
  386. Format                                   : VobSub
  387. Muxing mode                              : zlib
  388. Codec ID                                 : S_VOBSUB
  389. Codec ID/Info                            : Picture based subtitle format used on DVDs
  390. Duration                                 : 2 h 33 min
  391. Bit rate                                 : 2 861 b/s
  392. Count of elements                        : 927
  393. Stream size                              : 3.15 MiB (0%)
  394. Language                                 : Thai
  395. Default                                  : No
  396. Forced                                   : No
  397.  
  398. Text #24
  399. ID                                       : 27
  400. Format                                   : VobSub
  401. Muxing mode                              : zlib
  402. Codec ID                                 : S_VOBSUB
  403. Codec ID/Info                            : Picture based subtitle format used on DVDs
  404. Duration                                 : 2 h 33 min
  405. Bit rate                                 : 2 718 b/s
  406. Count of elements                        : 924
  407. Stream size                              : 2.99 MiB (0%)
  408. Language                                 : Turkish
  409. Default                                  : No
  410. Forced                                   : No
  411.  
  412. Text #25
  413. ID                                       : 28
  414. Format                                   : VobSub
  415. Muxing mode                              : zlib
  416. Codec ID                                 : S_VOBSUB
  417. Codec ID/Info                            : Picture based subtitle format used on DVDs
  418. Duration                                 : 2 h 33 min
  419. Bit rate                                 : 2 845 b/s
  420. Count of elements                        : 929
  421. Stream size                              : 3.13 MiB (0%)
  422. Language                                 : Ukrainian
  423. Default                                  : No
  424. Forced                                   : No
  425.  
  426. Menu
  427. 00:00:00.000                             : en:Chapter 01
  428. 00:01:52.028                             : en:Chapter 02
  429. 00:05:38.379                             : en:Chapter 03
  430. 00:09:58.431                             : en:Chapter 04
  431. 00:13:13.292                             : en:Chapter 05
  432. 00:15:24.715                             : en:Chapter 06
  433. 00:20:06.288                             : en:Chapter 07
  434. 00:22:54.623                             : en:Chapter 08
  435. 00:25:39.454                             : en:Chapter 09
  436. 00:31:12.662                             : en:Chapter 10
  437. 00:37:00.384                             : en:Chapter 11
  438. 00:41:00.624                             : en:Chapter 12
  439. 00:44:11.148                             : en:Chapter 13
  440. 00:49:35.847                             : en:Chapter 14
  441. 00:52:41.158                             : en:Chapter 15
  442. 00:56:48.071                             : en:Chapter 16
  443. 01:00:04.309                             : en:Chapter 17
  444. 01:03:24.926                             : en:Chapter 18
  445. 01:06:58.723                             : en:Chapter 19
  446. 01:11:43.299                             : en:Chapter 20
  447. 01:14:40.392                             : en:Chapter 21
  448. 01:18:55.397                             : en:Chapter 22
  449. 01:21:21.877                             : en:Chapter 23
  450. 01:24:20.638                             : en:Chapter 24
  451. 01:26:39.485                             : en:Chapter 25
  452. 01:30:28.089                             : en:Chapter 26
  453. 01:34:01.469                             : en:Chapter 27
  454. 01:37:16.163                             : en:Chapter 28
  455. 01:41:46.183                             : en:Chapter 29
  456. 01:44:55.539                             : en:Chapter 30
  457. 01:48:06.229                             : en:Chapter 31
  458. 01:52:26.322                             : en:Chapter 32
  459. 01:55:24.083                             : en:Chapter 33
  460. 02:00:03.446                             : en:Chapter 34
  461. 02:06:24.326                             : en:Chapter 35
  462. 02:08:21.193                             : en:Chapter 36
  463. 02:10:46.630                             : en:Chapter 37
  464. 02:13:06.311                             : en:Chapter 38
  465. 02:16:37.355                             : en:Chapter 39
  466. 02:22:57.193                             : en:Chapter 40
  467. 02:24:30.912                             : en:Chapter 41
RAW Paste Data
Top