Advertisement
johnowenemmet

Пространство / Экспансия / The Expanse (2018)

Feb 10th, 2024
28
0
Never
Not a member of Pastebin yet? Sign Up, it unlocks many cool features!
text 10.29 KB | None | 0 0
  1. x265 [info]: frame I: 265, Avg QP:17.88 kb/s: 16644.86
  2. x265 [info]: frame P: 8438, Avg QP:19.08 kb/s: 14220.99
  3. x265 [info]: frame B: 54022, Avg QP:21.17 kb/s: 4246.26
  4. x265 [info]: Weighted P-Frames: Y:10.5% UV:8.9%
  5. x265 [info]: Weighted B-Frames: Y:9.4% UV:7.0%
  6. x265 [info]: consecutive B-frames: 3.6% 2.6% 5.0% 13.2% 9.7% 19.4% 7.3% 10.4% 5.4% 5.3% 3.9% 4.4% 2.3% 2.2% 1.6% 1.9% 2.1%
  7. x265 [info]: encoded 62725 frames in 40723.99s (1.54 fps), 5640.48 kb/s, Avg QP:20.88
  8.  
  9. Общее
  10. Уникальный идентификатор : 109183770735935187645061389007924965388 (0x522407837DB834AD7F656A78374F300C)
  11. Полное имя : \\.\The.Expanse.S03E01.Fight.or.Flight.mkv
  12. Формат : Matroska
  13. Версия формата : Version 4
  14. Размер файла : 2,23 Гбайт
  15. Продолжительность : 43 м. 36 с.
  16. Общий поток : 7 309 Кбит/сек
  17. Частота кадров : 23,976 кадра/сек
  18. Название фильма : The.Expanse.S03E01.Fight.or.Flight / Дерись или улетай
  19. Трек/Положение : 3
  20. Кодирование произвёл : OldGamer
  21. Тип содержимого : TV Show
  22. Описание : В свете произошедших событий, а также после разговора с Савидаром, генеральный секретарь объявляет Марсу войну.
  23. Дата выпуска : 2018-04-11
  24. Дата записи : 2018-04-11
  25. Программа кодирования : mkvmerge v82.0 ('I'm The President') 64-bit
  26. Библиотека кодирования : libebml v1.4.5 + libmatroska v1.7.1 / xvid5psp
  27. Обложка : Yes
  28. Attachments : cover.jpg
  29. ACTOR : Steven Strait, Dominique Tipper, Cas Anvar, Wes Chatham, Shohreh Aghdashloo, Frankie Adams, Shawn Doyle, Cara Gee, Briana Templeton, David Chinchilla, David Patrick Green, Samora Smallwood, David Tompa, Nick E. Tarabay, Jonathan Whittaker, Chad L. Co...
  30. ARTIST : Steven Strait, Dominique Tipper, Cas Anvar, Wes Chatham, Shohreh Aghdashloo, Frankie Adams, Shawn Doyle, Cara Gee, Briana Templeton, David Chinchilla, David Patrick Green, Samora Smallwood, David Tompa, Nick E. Tarabay, Jonathan Whittaker, Chad L. Co...
  31. DIRECTOR : Breck Eisner
  32. EPISODE.PART_NUM : 1
  33. GENRE : драма, детектив, НФ и Фэнтези
  34. LAW_RATING : TV-14
  35. RATING : TV-14
  36. SCREENPLAY_BY : Hawk Ostby, Mark Fergus
  37. SEASON.PART_NUM : 3
  38. SUMMARY : В свете произошедших событий, а также после разговора с Савидаром, генеральный секретарь объявляет Марсу войну.
  39. SYNOPSIS : В свете произошедших событий, а также после разговора с Савидаром, генеральный секретарь объявляет Марсу войну. Узнав о его решении, Нагата как может маскирует космолет, однако для выживания команде приходится срочно искать надежное место укрытия от врагов. Вскоре чувствующий себя обязанным Праксу Холден предлагает экипажу вместо плана Наоми отправиться на один из спутников Венеры, где у них, возможно, появится шанс спасти дочь Менга. Корабль Авасаралы между тем оказывается под прицелом ракет Эрринрайта, и у оказавшихся на борту людей остается 15 минут до взрыва, чтобы покинуть судно и попытаться спастись.
  40. WRITTEN_BY : Hawk Ostby, Mark Fergus
  41.  
  42. Видео
  43. Идентификатор : 1
  44. Формат : HEVC
  45. Формат/Информация : High Efficiency Video Coding
  46. Профиль формата : Main 10@L4.1@High
  47. Идентификатор кодека : V_MPEGH/ISO/HEVC
  48. Продолжительность : 43 м. 36 с.
  49. Битрейт : 5 641 Кбит/сек
  50. Ширина : 1 920 пикселей
  51. Высота : 1 080 пикселей
  52. Соотношение сторон : 16:9
  53. Режим частоты кадров : Постоянный
  54. Частота кадров : 23,976 (24000/1001) кадра/сек
  55. Цветовое пространство : YUV
  56. Субдискретизация насыщенности : 4:2:0
  57. Битовая глубина : 10 бит
  58. Бит/(Пиксели*Кадры) : 0.113
  59. Размер потока : 1,72 Гбайт (77%)
  60. Заголовок : The Expanse S03E01 / Rip by OldGamer
  61. Библиотека кодирования : x265 3.2.1+3-b4b2ecac21f6:[Windows][MSVC 1924][64 bit] 10bit
  62. Настройки программы : cpuid=1111039 / frame-threads=3 / numa-pools=8 / wpp / no-pmode / no-pme / psnr / ssim / log-level=2 / input-csp=1 / input-res=1920x1080 / interlace=0 / total-frames=62725 / level-idc=41 / high-tier=1 / uhd-bd=0 / ref=5 / no-allow-non-conformance / no-repeat-headers / annexb / no-aud / no-hrd / info / hash=0 / no-temporal-layers / open-gop / min-keyint=23 / keyint=240 / gop-lookahead=0 / bframes=16 / b-adapt=2 / b-pyramid / bframe-bias=0 / rc-lookahead=60 / lookahead-slices=0 / scenecut=40 / radl=0 / no-splice / no-intra-refresh / ctu=64 / min-cu-size=8 / rect / amp / max-tu-size=32 / tu-inter-depth=4 / tu-intra-depth=4 / limit-tu=1 / rdoq-level=2 / dynamic-rd=0.00 / no-ssim-rd / signhide / no-tskip / nr-intra=0 / nr-inter=0 / no-constrained-intra / no-strong-intra-smoothing / max-merge=5 / limit-refs=3 / no-limit-modes / me=3 / subme=7 / merange=57 / temporal-mvp / no-hme / weightp / weightb / no-analyze-src-pics / deblock=-3:-3 / no-sao / no-sao-non-deblock / rd=6 / selective-sao=0 / no-early-skip / rskip / no-fast-intra / no-tskip-fast / no-cu-lossless / b-intra / no-splitrd-skip / rdpenalty=0 / psy-rd=2.00 / psy-rdoq=1.00 / no-rd-refine / no-lossless / cbqpoffs=0 / crqpoffs=0 / rc=crf / crf=20.0 / qcomp=0.60 / qpstep=4 / stats-write=0 / stats-read=0 / vbv-maxrate=50000 / vbv-bufsize=50000 / vbv-init=0.9 / crf-max=0.0 / crf-min=0.0 / ipratio=1.40 / pbratio=1.30 / aq-mode=4 / aq-strength=0.80 / no-cutree / zone-count=0 / no-strict-cbr / qg-size=32 / no-rc-grain / qpmax=69 / qpmin=0 / no-const-vbv / sar=1 / overscan=0 / videoformat=5 / range=0 / colorprim=2 / transfer=2 / colormatrix=2 / chromaloc=0 / display-window=0 / cll=0,0 / min-luma=0 / max-luma=1023 / log2-max-poc-lsb=8 / vui-timing-info / vui-hrd-info / slices=1 / no-opt-qp-pps / no-opt-ref-list-length-pps / no-multi-pass-opt-rps / scenecut-bias=0.00 / no-opt-cu-delta-qp / no-aq-motion / no-hdr / no-hdr-opt / no-dhdr10-opt / no-idr-recovery-sei / analysis-reuse-level=5 / scale-factor=0 / refine-intra=0 / refine-inter=0 / refine-mv=1 / refine-ctu-distortion=0 / no-limit-sao / ctu-info=0 / no-lowpass-dct / refine-analysis-type=0 / copy-pic=1 / max-ausize-factor=1.0 / no-dynamic-refine / no-single-sei / no-hevc-aq / no-svt / no-field / qp-adaptation-range=1.00
  63. Язык : English
  64. Default : Да
  65. Forced : Нет
  66.  
  67. Аудио #1
  68. Идентификатор : 2
  69. Формат : AC-3
  70. Формат/Информация : Audio Coding 3
  71. Коммерческое название : Dolby Digital
  72. Идентификатор кодека : A_AC3
  73. Продолжительность : 43 м. 36 с.
  74. Вид битрейта : Постоянный
  75. Битрейт : 640 Кбит/сек
  76. Каналы : 6 каналов
  77. Channel layout : L R C LFE Ls Rs
  78. Частота : 48,0 КГц
  79. Частота кадров : 31,250 кадров/сек (1536 SPF)
  80. Метод сжатия : С потерями
  81. Размер потока : 200 Мбайт (9%)
  82. Заголовок : MVO (LostFilm)
  83. Язык : Russian
  84. Service kind : Complete Main
  85. Default : Да
  86. Forced : Нет
  87.  
  88. Аудио #2
  89. Идентификатор : 3
  90. Формат : AC-3
  91. Формат/Информация : Audio Coding 3
  92. Коммерческое название : Dolby Digital
  93. Идентификатор кодека : A_AC3
  94. Продолжительность : 43 м. 32 с.
  95. Вид битрейта : Постоянный
  96. Битрейт : 384 Кбит/сек
  97. Каналы : 6 каналов
  98. Channel layout : L R C LFE Ls Rs
  99. Частота : 48,0 КГц
  100. Частота кадров : 31,250 кадров/сек (1536 SPF)
  101. Метод сжатия : С потерями
  102. Размер потока : 120 Мбайт (5%)
  103. Заголовок : MVO (AlexFilm)
  104. Язык : Russian
  105. Service kind : Complete Main
  106. Default : Нет
  107. Forced : Нет
  108.  
  109. Аудио #3
  110. Идентификатор : 4
  111. Формат : AC-3
  112. Формат/Информация : Audio Coding 3
  113. Коммерческое название : Dolby Digital
  114. Идентификатор кодека : A_AC3
  115. Продолжительность : 43 м. 36 с.
  116. Вид битрейта : Постоянный
  117. Битрейт : 640 Кбит/сек
  118. Каналы : 6 каналов
  119. Channel layout : L R C LFE Ls Rs
  120. Частота : 48,0 КГц
  121. Частота кадров : 31,250 кадров/сек (1536 SPF)
  122. Метод сжатия : С потерями
  123. Размер потока : 200 Мбайт (9%)
  124. Заголовок : Original
  125. Язык : English
  126. Service kind : Complete Main
  127. Default : Нет
  128. Forced : Нет
  129.  
  130. Текст #1
  131. Идентификатор : 5
  132. Формат : UTF-8
  133. Идентификатор кодека : S_TEXT/UTF8
  134. Идентификатор кодека/Информация : UTF-8 Plain Text
  135. Продолжительность : 42 м. 24 с.
  136. Битрейт : 125 бит/сек
  137. Частота кадров : 0,263 кадр/сек
  138. Count of elements : 669
  139. Размер потока : 39,0 Кбайт (0%)
  140. Язык : Russian
  141. Default : Нет
  142. Forced : Нет
  143.  
  144. Текст #2
  145. Идентификатор : 6
  146. Формат : UTF-8
  147. Идентификатор кодека : S_TEXT/UTF8
  148. Идентификатор кодека/Информация : UTF-8 Plain Text
  149. Продолжительность : 42 м. 24 с.
  150. Битрейт : 66 бит/сек
  151. Частота кадров : 0,284 кадр/сек
  152. Count of elements : 724
  153. Размер потока : 20,8 Кбайт (0%)
  154. Язык : English
  155. Default : Нет
  156. Forced : Нет
  157.  
  158. Меню
  159. 00:00:00.000 : en:Chapter 1
  160. 00:03:29.876 : en:Chapter 2
  161. 00:21:12.980 : en:Chapter 3
  162. 00:34:15.178 : en:Chapter 4
Advertisement
Add Comment
Please, Sign In to add comment
Advertisement