SHARE
TWEET

The Laundromat WEB-DL 1080p

dirtyharrys Oct 21st, 2019 71 Never
Not a member of Pastebin yet? Sign Up, it unlocks many cool features!
  1. General
  2. Unique ID                   : 306511556957704765864242349989058767450 (0xE697FA84848875C31CE26AAA2ECAEA5A)
  3. Complete name               : E:\The.Laundromat.2019.1080p.NF.WEB-DL.x264\The.Laundromat.2019.1080p.NF.WEB-DL.x264.mkv
  4. Format                      : Matroska
  5. Format version              : Version 4
  6. File size                   : 4.87 GiB
  7. Duration                    : 1 h 36 min
  8. Overall bit rate mode       : Variable
  9. Overall bit rate            : 7 253 kb/s
  10. Movie name                  : The Laundromat WEB-DL / The Laundromat WEB-DL
  11. Encoded date                : UTC 2019-10-21 05:16:18
  12. Writing application         : mkvmerge v30.1.0 ('Forever And More') 32-bit
  13. Writing library             : libebml v1.3.6 + libmatroska v1.4.9
  14. Copyright                   : HARSHLEARNER
  15.  
  16. Video
  17. ID                          : 1
  18. Format                      : AVC
  19. Format/Info                 : Advanced Video Codec
  20. Format profile              : Main@L4
  21. Format settings             : CABAC / 3 Ref Frames
  22. Format settings, CABAC      : Yes
  23. Format settings, ReFrames   : 3 frames
  24. Codec ID                    : V_MPEG4/ISO/AVC
  25. Duration                    : 1 h 36 min
  26. Bit rate mode               : Variable
  27. Bit rate                    : 6 190 kb/s
  28. Maximum bit rate            : 9 285 kb/s
  29. Width                       : 1 920 pixels
  30. Height                      : 1 080 pixels
  31. Display aspect ratio        : 16:9
  32. Frame rate mode             : Constant
  33. Frame rate                  : 24.000 FPS
  34. Color space                 : YUV
  35. Chroma subsampling          : 4:2:0
  36. Bit depth                   : 8 bits
  37. Scan type                   : Progressive
  38. Bits/(Pixel*Frame)          : 0.124
  39. Stream size                 : 4.01 GiB (82%)
  40. Title                       : The Laundromat
  41. Writing library             : x264 core 148 r2715 7e75228
  42. Encoding settings           : cabac=1 / ref=3 / deblock=1:0:0 / analyse=0x1:0x111 / me=umh / subme=10 / psy=1 / psy_rd=1.00:0.00 / mixed_ref=1 / me_range=24 / chroma_me=1 / trellis=2 / 8x8dct=0 / cqm=0 / deadzone=21,11 / fast_pskip=1 / chroma_qp_offset=-2 / threads=8 / lookahead_threads=1 / sliced_threads=0 / nr=0 / decimate=1 / interlaced=0 / bluray_compat=0 / stitchable=1 / constrained_intra=0 / bframes=2 / b_pyramid=0 / b_adapt=2 / b_bias=0 / direct=3 / weightb=1 / open_gop=0 / weightp=2 / keyint=250 / keyint_min=24 / scenecut=0 / intra_refresh=0 / rc_lookahead=48 / rc=2pass / mbtree=1 / bitrate=6190 / ratetol=1.0 / qcomp=0.50 / qpmin=6 / qpmax=51 / qpstep=4 / cplxblur=20.0 / qblur=0.5 / vbv_maxrate=9285 / vbv_bufsize=12380 / nal_hrd=vbr / filler=0 / ip_ratio=1.40 / aq=1:1.00
  43. Language                    : English
  44. Default                     : Yes
  45. Forced                      : No
  46.  
  47. Audio #1
  48. ID                          : 2
  49. Format                      : E-AC-3
  50. Format/Info                 : Enhanced AC-3
  51. Commercial name             : Dolby Digital Plus
  52. Codec ID                    : A_EAC3
  53. Duration                    : 1 h 36 min
  54. Bit rate mode               : Constant
  55. Bit rate                    : 640 kb/s
  56. Channel(s)                  : 6 channels
  57. Channel layout              : L R C LFE Ls Rs
  58. Sampling rate               : 48.0 kHz
  59. Frame rate                  : 31.250 FPS (1536 SPF)
  60. Compression mode            : Lossy
  61. Stream size                 : 440 MiB (9%)
  62. Title                       : English
  63. Language                    : English
  64. Service kind                : Complete Main
  65. Default                     : No
  66. Forced                      : No
  67.  
  68. Audio #2
  69. ID                          : 3
  70. Format                      : E-AC-3
  71. Format/Info                 : Enhanced AC-3
  72. Commercial name             : Dolby Digital Plus
  73. Codec ID                    : A_EAC3
  74. Duration                    : 1 h 36 min
  75. Bit rate mode               : Constant
  76. Bit rate                    : 640 kb/s
  77. Channel(s)                  : 6 channels
  78. Channel layout              : L R C LFE Ls Rs
  79. Sampling rate               : 48.0 kHz
  80. Frame rate                  : 31.250 FPS (1536 SPF)
  81. Compression mode            : Lossy
  82. Stream size                 : 440 MiB (9%)
  83. Title                       : Spanish
  84. Language                    : Spanish
  85. Service kind                : Complete Main
  86. Default                     : Yes
  87. Forced                      : Yes
  88.  
  89. Text #1
  90. ID                          : 4
  91. Format                      : UTF-8
  92. Codec ID                    : S_TEXT/UTF8
  93. Codec ID/Info               : UTF-8 Plain Text
  94. Duration                    : 1 h 34 min
  95. Bit rate                    : 81 b/s
  96. Count of elements           : 1478
  97. Stream size                 : 56.0 KiB (0%)
  98. Title                       : English
  99. Language                    : English
  100. Default                     : No
  101. Forced                      : No
  102.  
  103. Text #2
  104. ID                          : 5
  105. Format                      : UTF-8
  106. Codec ID                    : S_TEXT/UTF8
  107. Codec ID/Info               : UTF-8 Plain Text
  108. Duration                    : 1 h 34 min
  109. Bit rate                    : 85 b/s
  110. Count of elements           : 1557
  111. Stream size                 : 58.9 KiB (0%)
  112. Title                       : English SDH
  113. Language                    : English
  114. Default                     : No
  115. Forced                      : No
  116.  
  117. Text #3
  118. ID                          : 6
  119. Format                      : UTF-8
  120. Codec ID                    : S_TEXT/UTF8
  121. Codec ID/Info               : UTF-8 Plain Text
  122. Duration                    : 1 h 30 min
  123. Bit rate                    : 80 b/s
  124. Count of elements           : 1455
  125. Stream size                 : 53.5 KiB (0%)
  126. Title                       : Spanish
  127. Language                    : Spanish
  128. Default                     : Yes
  129. Forced                      : Yes
  130.  
  131. Text #4
  132. ID                          : 7
  133. Format                      : UTF-8
  134. Codec ID                    : S_TEXT/UTF8
  135. Codec ID/Info               : UTF-8 Plain Text
  136. Duration                    : 1 h 33 min
  137. Bit rate                    : 74 b/s
  138. Count of elements           : 1558
  139. Stream size                 : 51.4 KiB (0%)
  140. Title                       : French
  141. Language                    : French
  142. Default                     : No
  143. Forced                      : No
  144.  
  145. Text #5
  146. ID                          : 8
  147. Format                      : UTF-8
  148. Codec ID                    : S_TEXT/UTF8
  149. Codec ID/Info               : UTF-8 Plain Text
  150. Duration                    : 1 h 34 min
  151. Bit rate                    : 75 b/s
  152. Count of elements           : 1464
  153. Stream size                 : 52.5 KiB (0%)
  154. Title                       : Portuguese Brazilian
  155. Language                    : Portuguese
  156. Default                     : No
  157. Forced                      : No
  158.  
  159. Text #6
  160. ID                          : 9
  161. Format                      : UTF-8
  162. Codec ID                    : S_TEXT/UTF8
  163. Codec ID/Info               : UTF-8 Plain Text
  164. Duration                    : 1 h 30 min
  165. Bit rate                    : 4 b/s
  166. Count of elements           : 90
  167. Stream size                 : 3.20 KiB (0%)
  168. Title                       : Spanish
  169. Language                    : Spanish
  170. Default                     : No
  171. Forced                      : No
RAW Paste Data
We use cookies for various purposes including analytics. By continuing to use Pastebin, you agree to our use of cookies as described in the Cookies Policy. OK, I Understand
 
Top