Guest User

Untitled

a guest
May 15th, 2021
40
Never
Not a member of Pastebin yet? Sign Up, it unlocks many cool features!
  1. General
  2. Unique ID : 207156703911215222666396344408533028886 (0x9BD8EE0F8521311CE1B8FCB9D73AD016)
  3. Complete name : F:\Video\Chaos.Walking.2021.BDRip.1080p.seleZen.mkv
  4. Format : Matroska
  5. Format version : Version 4
  6. File size : 7.61 GiB
  7. Duration : 1 h 48 min
  8. Overall bit rate : 10.0 Mb/s
  9. Movie name : Chaos Walking 2021 from seleZen
  10. Encoded date : UTC 2021-05-15 10:08:52
  11. Writing application : mkvmerge v55.0.0 ('Waiting For Space') 64-bit
  12. Writing library : libebml v1.4.2 + libmatroska v1.6.4
  13.  
  14. Video
  15. ID : 1
  16. Format : AVC
  17. Format/Info : Advanced Video Codec
  18. Format profile : High@L4.1
  19. Format settings : CABAC / 5 Ref Frames
  20. Format settings, CABAC : Yes
  21. Format settings, Reference : 5 frames
  22. Codec ID : V_MPEG4/ISO/AVC
  23. Duration : 1 h 48 min
  24. Bit rate : 8 980 kb/s
  25. Width : 1 920 pixels
  26. Height : 804 pixels
  27. Display aspect ratio : 2.40:1
  28. Frame rate mode : Constant
  29. Frame rate : 23.976 (24000/1001) FPS
  30. Color space : YUV
  31. Chroma subsampling : 4:2:0
  32. Bit depth : 8 bits
  33. Scan type : Progressive
  34. Bits/(Pixel*Frame) : 0.243
  35. Stream size : 6.83 GiB (90%)
  36. Title : MTeam
  37. Writing library : x264 core 157 r2938 2b00a84 TnP@MTeam Mod
  38. Encoding settings : cabac=1 / ref=5 / deblock=1:-3:-3 / analyse=0x3:0x133 / me=umh / subme=10 / psy=1 / psy_rd=1.05:0.00 / mixed_ref=1 / me_range=32 / chroma_me=1 / trellis=2 / 8x8dct=1 / cqm=0 / deadzone=21,11 / fast_pskip=0 / chroma_qp_offset=-2 / threads=12 / lookahead_threads=2 / sliced_threads=0 / nr=0 / decimate=0 / interlaced=0 / bluray_compat=0 / constrained_intra=0 / bframes=8 / b_pyramid=2 / b_adapt=2 / b_bias=0 / direct=3 / weightb=1 / open_gop=0 / weightp=2 / keyint=250 / keyint_min=24 / scenecut=40 / intra_refresh=0 / rc_lookahead=250 / rc=crf / mbtree=0 / crf=16.8 / qcomp=0.60 / qpmin=0 / qpmax=69 / qpstep=4 / vbv_maxrate=62500 / vbv_bufsize=78125 / crf_max=0.0 / nal_hrd=none / filler=0 / ip_ratio=1.30 / pb_ratio=1.20 / aq=3:0.80
  39. Language : English
  40. Default : Yes
  41. Forced : No
  42. Color range : Limited
  43. Color primaries : BT.709
  44. Matrix coefficients : BT.709
  45.  
  46. Audio #1
  47. ID : 2
  48. Format : AC-3
  49. Format/Info : Audio Coding 3
  50. Commercial name : Dolby Digital
  51. Codec ID : A_AC3
  52. Duration : 1 h 48 min
  53. Bit rate mode : Constant
  54. Bit rate : 384 kb/s
  55. Channel(s) : 6 channels
  56. Channel layout : L R C LFE Ls Rs
  57. Sampling rate : 48.0 kHz
  58. Frame rate : 31.250 FPS (1536 SPF)
  59. Compression mode : Lossy
  60. Stream size : 299 MiB (4%)
  61. Title : iTunes
  62. Language : Russian
  63. Service kind : Complete Main
  64. Default : Yes
  65. Forced : Yes
  66.  
  67. Audio #2
  68. ID : 3
  69. Format : AC-3
  70. Format/Info : Audio Coding 3
  71. Commercial name : Dolby Digital
  72. Format settings : Dolby Surround EX
  73. Codec ID : A_AC3
  74. Duration : 1 h 48 min
  75. Bit rate mode : Constant
  76. Bit rate : 640 kb/s
  77. Channel(s) : 6 channels
  78. Channel layout : L R C LFE Ls Rs
  79. Sampling rate : 48.0 kHz
  80. Frame rate : 31.250 FPS (1536 SPF)
  81. Compression mode : Lossy
  82. Stream size : 499 MiB (6%)
  83. Title : Original
  84. Language : English
  85. Service kind : Complete Main
  86. Default : No
  87. Forced : No
  88.  
  89. Text #1
  90. ID : 4
  91. Format : UTF-8
  92. Codec ID : S_TEXT/UTF8
  93. Codec ID/Info : UTF-8 Plain Text
  94. Duration : 1 h 40 min
  95. Bit rate : 0 b/s
  96. Count of elements : 11
  97. Stream size : 498 Bytes (0%)
  98. Title : Forced
  99. Language : Russian
  100. Default : No
  101. Forced : No
  102.  
  103. Text #2
  104. ID : 5
  105. Format : UTF-8
  106. Codec ID : S_TEXT/UTF8
  107. Codec ID/Info : UTF-8 Plain Text
  108. Duration : 1 h 38 min
  109. Bit rate : 91 b/s
  110. Count of elements : 1529
  111. Stream size : 66.1 KiB (0%)
  112. Title : Full [FOCS]
  113. Language : Russian
  114. Default : No
  115. Forced : No
  116.  
  117. Text #3
  118. ID : 6
  119. Format : UTF-8
  120. Codec ID : S_TEXT/UTF8
  121. Codec ID/Info : UTF-8 Plain Text
  122. Duration : 1 h 37 min
  123. Bit rate : 56 b/s
  124. Count of elements : 1504
  125. Stream size : 40.6 KiB (0%)
  126. Title : Full
  127. Language : English
  128. Default : No
  129. Forced : No
  130.  
  131. Text #4
  132. ID : 7
  133. Format : UTF-8
  134. Codec ID : S_TEXT/UTF8
  135. Codec ID/Info : UTF-8 Plain Text
  136. Duration : 1 h 38 min
  137. Bit rate : 64 b/s
  138. Count of elements : 1784
  139. Stream size : 46.3 KiB (0%)
  140. Title : SDH
  141. Language : English
  142. Default : No
  143. Forced : No
  144.  
  145. Menu
  146. 00:00:00.000 : en:Chapter 01
  147. 00:05:16.858 : en:Chapter 02
  148. 00:13:20.550 : en:Chapter 03
  149. 00:20:18.634 : en:Chapter 04
  150. 00:27:39.867 : en:Chapter 05
  151. 00:35:54.110 : en:Chapter 06
  152. 00:39:41.254 : en:Chapter 07
  153. 00:45:45.409 : en:Chapter 08
  154. 00:51:22.204 : en:Chapter 09
  155. 00:56:34.558 : en:Chapter 10
  156. 01:01:40.363 : en:Chapter 11
  157. 01:07:13.446 : en:Chapter 12
  158. 01:15:41.996 : en:Chapter 13
  159. 01:22:30.821 : en:Chapter 14
  160. 01:30:43.938 : en:Chapter 15
  161. 01:36:45.800 : en:Chapter 16
  162.  
  163.  
RAW Paste Data