Advertisement
Guest User

Untitled

a guest
Jan 6th, 2022
27
Never
Not a member of Pastebin yet? Sign Up, it unlocks many cool features!
  1. General
  2. Unique ID : 121588528303874691079802697502190110085 (0x5B791948095C35C506B197B2EBDE8585)
  3. Complete name : C:\Video\The.Last.Duel.2021.BDRip.720p.seleZen.mkv
  4. Format : Matroska
  5. Format version : Version 4
  6. File size : 7.04 GiB
  7. Duration : 2 h 32 min
  8. Overall bit rate : 6 585 kb/s
  9. Movie name : The Last Duel 2021 from seleZen
  10. Encoded date : UTC 2022-01-06 21:45:20
  11. Writing application : mkvmerge v59.0.0 ('Shining Star') 64-bit
  12. Writing library : libebml v1.4.2 + libmatroska v1.6.4
  13.  
  14. Video
  15. ID : 1
  16. Format : AVC
  17. Format/Info : Advanced Video Codec
  18. Format profile : High@L4.1
  19. Format settings : CABAC / 12 Ref Frames
  20. Format settings, CABAC : Yes
  21. Format settings, Reference : 12 frames
  22. Codec ID : V_MPEG4/ISO/AVC
  23. Duration : 2 h 32 min
  24. Bit rate : 5 508 kb/s
  25. Width : 1 280 pixels
  26. Height : 536 pixels
  27. Display aspect ratio : 2.40:1
  28. Frame rate mode : Constant
  29. Frame rate : 23.976 (24000/1001) FPS
  30. Color space : YUV
  31. Chroma subsampling : 4:2:0
  32. Bit depth : 8 bits
  33. Scan type : Progressive
  34. Bits/(Pixel*Frame) : 0.335
  35. Stream size : 5.87 GiB (83%)
  36. Title : WiKi
  37. Writing library : x264 core 129 r2245 bc13772
  38. Encoding settings : cabac=1 / ref=12 / deblock=1:-3:-3 / analyse=0x3:0x133 / me=umh / subme=11 / psy=1 / psy_rd=1.05:0.05 / mixed_ref=1 / me_range=32 / chroma_me=1 / trellis=2 / 8x8dct=1 / cqm=0 / deadzone=21,11 / fast_pskip=0 / chroma_qp_offset=-3 / threads=24 / lookahead_threads=4 / sliced_threads=0 / nr=0 / decimate=1 / interlaced=0 / bluray_compat=0 / constrained_intra=0 / bframes=10 / b_pyramid=2 / b_adapt=2 / b_bias=0 / direct=3 / weightb=1 / open_gop=0 / weightp=2 / keyint=250 / keyint_min=23 / scenecut=40 / intra_refresh=0 / rc_lookahead=60 / rc=2pass / mbtree=1 / bitrate=5508 / ratetol=1.0 / qcomp=0.60 / qpmin=0 / qpmax=69 / qpstep=4 / cplxblur=20.0 / qblur=0.5 / ip_ratio=1.40 / aq=1:0.80
  39. Language : English
  40. Default : Yes
  41. Forced : No
  42.  
  43. Audio #1
  44. ID : 2
  45. Format : AC-3
  46. Format/Info : Audio Coding 3
  47. Commercial name : Dolby Digital
  48. Codec ID : A_AC3
  49. Duration : 2 h 32 min
  50. Bit rate mode : Constant
  51. Bit rate : 448 kb/s
  52. Channel(s) : 6 channels
  53. Channel layout : L R C LFE Ls Rs
  54. Sampling rate : 48.0 kHz
  55. Frame rate : 31.250 FPS (1536 SPF)
  56. Compression mode : Lossy
  57. Stream size : 490 MiB (7%)
  58. Title : Dub [Nevafilm]
  59. Language : Russian
  60. Service kind : Complete Main
  61. Default : Yes
  62. Forced : Yes
  63.  
  64. Audio #2
  65. ID : 3
  66. Format : AC-3
  67. Format/Info : Audio Coding 3
  68. Commercial name : Dolby Digital
  69. Codec ID : A_AC3
  70. Duration : 2 h 32 min
  71. Bit rate mode : Constant
  72. Bit rate : 640 kb/s
  73. Channel(s) : 6 channels
  74. Channel layout : L R C LFE Ls Rs
  75. Sampling rate : 48.0 kHz
  76. Frame rate : 31.250 FPS (1536 SPF)
  77. Compression mode : Lossy
  78. Stream size : 699 MiB (10%)
  79. Title : Original
  80. Language : English
  81. Service kind : Complete Main
  82. Default : No
  83. Forced : No
  84.  
  85. Text #1
  86. ID : 4
  87. Format : UTF-8
  88. Codec ID : S_TEXT/UTF8
  89. Codec ID/Info : UTF-8 Plain Text
  90. Duration : 2 h 22 min
  91. Bit rate : 1 b/s
  92. Count of elements : 35
  93. Stream size : 1.62 KiB (0%)
  94. Title : Forced
  95. Language : Russian
  96. Default : No
  97. Forced : No
  98.  
  99. Text #2
  100. ID : 5
  101. Format : UTF-8
  102. Codec ID : S_TEXT/UTF8
  103. Codec ID/Info : UTF-8 Plain Text
  104. Duration : 2 h 22 min
  105. Bit rate : 79 b/s
  106. Count of elements : 1652
  107. Stream size : 83.1 KiB (0%)
  108. Title : Full
  109. Language : Russian
  110. Default : No
  111. Forced : No
  112.  
  113. Text #3
  114. ID : 6
  115. Format : UTF-8
  116. Codec ID : S_TEXT/UTF8
  117. Codec ID/Info : UTF-8 Plain Text
  118. Duration : 23 s 273 ms
  119. Bit rate : 49 b/s
  120. Count of elements : 6
  121. Stream size : 143 Bytes (0%)
  122. Title : Forced
  123. Language : English
  124. Default : No
  125. Forced : No
  126.  
  127. Text #4
  128. ID : 7
  129. Format : UTF-8
  130. Codec ID : S_TEXT/UTF8
  131. Codec ID/Info : UTF-8 Plain Text
  132. Duration : 2 h 22 min
  133. Bit rate : 47 b/s
  134. Count of elements : 1714
  135. Stream size : 49.6 KiB (0%)
  136. Title : Full
  137. Language : English
  138. Default : No
  139. Forced : No
  140.  
  141. Text #5
  142. ID : 8
  143. Format : UTF-8
  144. Codec ID : S_TEXT/UTF8
  145. Codec ID/Info : UTF-8 Plain Text
  146. Duration : 2 h 28 min
  147. Bit rate : 56 b/s
  148. Count of elements : 2168
  149. Stream size : 61.1 KiB (0%)
  150. Title : SDH
  151. Language : English
  152. Default : No
  153. Forced : No
  154.  
  155. Menu
  156. 00:00:00.000 : Chapter 1
  157. 00:05:02.052 : Chapter 2
  158. 00:09:42.457 : Chapter 3
  159. 00:17:43.646 : Chapter 4
  160. 00:25:59.933 : Chapter 5
  161. 00:33:25.295 : Chapter 6
  162. 00:38:51.371 : Chapter 7
  163. 00:42:34.594 : Chapter 8
  164. 00:54:23.510 : Chapter 9
  165. 01:05:52.490 : Chapter 10
  166. 01:17:07.456 : Chapter 11
  167. 01:25:24.703 : Chapter 12
  168. 01:32:50.273 : Chapter 13
  169. 01:40:17.178 : Chapter 14
  170. 01:52:06.720 : Chapter 15
  171. 02:05:28.521 : Chapter 16
  172. 02:22:25.537 : Chapter 17
  173.  
  174.  
Advertisement
Advertisement
Advertisement
RAW Paste Data Copied
Advertisement