GrabHD

Untitled

Mar 2nd, 2020
148
Never
Not a member of Pastebin yet? Sign Up, it unlocks many cool features!
  1. Общее
  2. Уникальный идентификатор : 184356757583782709798986310958361071233 (0x8AB1D1EABD0B69835042594A0807CE81)
  3. Полное имя : R:Django Unchained (2012) BDRip 1080p [HEVC].mkv
  4. Формат : Matroska
  5. Версия формата : Version 4 / Version 2
  6. Размер файла : 11,0 Гбайт
  7. Продолжительность : 2 ч. 45 м.
  8. Общий поток : 9498 Кбит/сек
  9. Название фильма : Django Unchained (2012)
  10. Дата кодирования : UTC 2020-03-01 10:36:54
  11. Программа кодирования : mkvmerge v43.0.0 ('The Quartermaster') 64-bit
  12. Библиотека кодирования : libebml v1.3.10 + libmatroska v1.5.2
  13. Обложка : Yes
  14. Attachments : cover.jpg
  15.  
  16. Видео
  17. Идентификатор : 1
  18. Формат : HEVC
  19. Формат/Информация : High Efficiency Video Coding
  20. Профиль формата : Main 10@L4.1@High
  21. Идентификатор кодека : V_MPEGH/ISO/HEVC
  22. Продолжительность : 2 ч. 45 м.
  23. Битрейт : 7575 Кбит/сек
  24. Ширина : 1920 пикселей
  25. Высота : 800 пикселей
  26. Соотношение сторон : 2,40:1
  27. Режим частоты кадров : Постоянный
  28. Частота кадров : 23,976 (23976/1000) кадра/сек
  29. Частота кадров в оригинале : 23,976 (24000/1001) кадра/сек
  30. Цветовое пространство : YUV
  31. Субдискретизация насыщенности : 4:2:0
  32. Битовая глубина : 10 бит
  33. Бит/(Пиксели*Кадры) : 0.206
  34. Размер потока : 8,75 Гбайт (80%)
  35. Библиотека кодирования : x265 3.2.1+1-b5c86a64bbbe:[Windows][MSVC 1923][64 bit] 10bit
  36. Настройки программы : cpuid=1111039 / frame-threads=3 / numa-pools=12 / wpp / no-pmode / no-pme / no-psnr / no-ssim / log-level=2 / input-csp=1 / input-res=1920x800 / interlace=0 / total-frames=237912 / level-idc=41 / high-tier=1 / uhd-bd=0 / ref=5 / no-allow-non-conformance / no-repeat-headers / annexb / no-aud / no-hrd / info / hash=0 / no-temporal-layers / open-gop / min-keyint=23 / keyint=240 / gop-lookahead=0 / bframes=12 / b-adapt=2 / b-pyramid / bframe-bias=0 / rc-lookahead=60 / lookahead-slices=4 / scenecut=40 / radl=0 / no-splice / no-intra-refresh / ctu=32 / min-cu-size=8 / rect / amp / max-tu-size=32 / tu-inter-depth=4 / tu-intra-depth=4 / limit-tu=1 / rdoq-level=2 / dynamic-rd=0.00 / no-ssim-rd / signhide / no-tskip / nr-intra=0 / nr-inter=0 / no-constrained-intra / no-strong-intra-smoothing / max-merge=4 / limit-refs=2 / limit-modes / me=3 / subme=7 / merange=57 / temporal-mvp / no-hme / weightp / weightb / no-analyze-src-pics / deblock=-3:-3 / no-sao / no-sao-non-deblock / rd=6 / selective-sao=0 / no-early-skip / no-rskip / no-fast-intra / no-tskip-fast / no-cu-lossless / no-b-intra / no-splitrd-skip / rdpenalty=0 / psy-rd=2.00 / psy-rdoq=1.00 / no-rd-refine / no-lossless / cbqpoffs=0 / crqpoffs=0 / rc=crf / crf=20.0 / qcomp=0.65 / qpstep=4 / stats-write=0 / stats-read=0 / vbv-maxrate=50000 / vbv-bufsize=50000 / vbv-init=0.9 / crf-max=0.0 / crf-min=0.0 / ipratio=1.40 / pbratio=1.30 / aq-mode=1 / aq-strength=1.00 / no-cutree / zone-count=0 / no-strict-cbr / qg-size=32 / no-rc-grain / qpmax=69 / qpmin=0 / no-const-vbv / sar=1 / overscan=0 / videoformat=5 / range=0 / colorprim=1 / transfer=1 / colormatrix=1 / chromaloc=0 / display-window=0 / cll=0,0 / min-luma=0 / max-luma=1023 / log2-max-poc-lsb=8 / vui-timing-info / vui-hrd-info / slices=1 / no-opt-qp-pps / no-opt-ref-list-length-pps / no-multi-pass-opt-rps / scenecut-bias=0.05 / no-opt-cu-delta-qp / no-aq-motion / no-hdr / no-hdr-opt / no-dhdr10-opt / no-idr-recovery-sei / analysis-reuse-level=5 / scale-factor=0 / refine-intra=0 / refine-inter=0 / refine-mv=1 / refine-ctu-distortion=0 / no-limit-sao / ctu-info=0 / no-lowpass-dct / refine-analysis-type=0 / copy-pic=1 / max-ausize-factor=1.0 / no-dynamic-refine / no-single-sei / no-hevc-aq / no-svt / no-field / qp-adaptation-range=1.00
  37. Default : Да
  38. Forced : Нет
  39. Цветовой диапазон : Limited
  40. Основные цвета : BT.709
  41. Характеристики трансфера : BT.709
  42. Коэффициенты матрицы : BT.709
  43.  
  44. Аудио #1
  45. Идентификатор : 2
  46. Формат : AC-3
  47. Формат/Информация : Audio Coding 3
  48. Идентификатор кодека : A_AC3
  49. Продолжительность : 2 ч. 45 м.
  50. Вид битрейта : Постоянный
  51. Битрейт : 640 Кбит/сек
  52. Каналы : 6 каналов
  53. Расположение каналов : Front: L C R, Side: L R, LFE
  54. Частота : 48,0 КГц
  55. Частота кадров : 31,250 кадров/сек (1536 SPF)
  56. Битовая глубина : 16 бит
  57. Метод сжатия : С потерями
  58. Размер потока : 757 Мбайт (7%)
  59. Заголовок : Dub
  60. Язык : Russian
  61. ServiceKind/Strin : Complete Main
  62. Default : Да
  63. Forced : Нет
  64.  
  65. Аудио #2
  66. Идентификатор : 3
  67. Формат : AC-3
  68. Формат/Информация : Audio Coding 3
  69. Идентификатор кодека : A_AC3
  70. Продолжительность : 2 ч. 45 м.
  71. Вид битрейта : Постоянный
  72. Битрейт : 640 Кбит/сек
  73. Каналы : 6 каналов
  74. Расположение каналов : Front: L C R, Side: L R, LFE
  75. Частота : 48,0 КГц
  76. Частота кадров : 31,250 кадров/сек (1536 SPF)
  77. Битовая глубина : 16 бит
  78. Метод сжатия : С потерями
  79. Размер потока : 757 Мбайт (7%)
  80. Заголовок : Dub
  81. Язык : Ukrainian
  82. ServiceKind/Strin : Complete Main
  83. Default : Нет
  84. Forced : Нет
  85.  
  86. Аудио #3
  87. Идентификатор : 4
  88. Формат : AC-3
  89. Формат/Информация : Audio Coding 3
  90. Идентификатор кодека : A_AC3
  91. Продолжительность : 2 ч. 45 м.
  92. Вид битрейта : Постоянный
  93. Битрейт : 640 Кбит/сек
  94. Каналы : 6 каналов
  95. Расположение каналов : Front: L C R, Side: L R, LFE
  96. Частота : 48,0 КГц
  97. Частота кадров : 31,250 кадров/сек (1536 SPF)
  98. Битовая глубина : 16 бит
  99. Метод сжатия : С потерями
  100. Размер потока : 757 Мбайт (7%)
  101. Заголовок : Original
  102. Язык : English
  103. ServiceKind/Strin : Complete Main
  104. Default : Нет
  105. Forced : Нет
  106.  
  107. Текст #1
  108. Идентификатор : 5
  109. Формат : UTF-8
  110. Идентификатор кодека : S_TEXT/UTF8
  111. Идентификатор кодека/Информация : UTF-8 Plain Text
  112. Продолжительность : 2 ч. 21 м.
  113. Битрейт : 1 бит/сек
  114. ElementCount : 35
  115. Размер потока : 1,78 Кбайт (0%)
  116. Заголовок : Forced
  117. Язык : Russian
  118. Default : Да
  119. Forced : Нет
  120.  
  121. Текст #2
  122. Идентификатор : 6
  123. Формат : UTF-8
  124. Идентификатор кодека : S_TEXT/UTF8
  125. Идентификатор кодека/Информация : UTF-8 Plain Text
  126. Продолжительность : 2 ч. 44 м.
  127. Битрейт : 92 бит/сек
  128. ElementCount : 1952
  129. Размер потока : 111 Кбайт (0%)
  130. Заголовок : Full
  131. Язык : Russian
  132. Default : Нет
  133. Forced : Нет
  134.  
  135. Текст #3
  136. Идентификатор : 7
  137. Формат : UTF-8
  138. Идентификатор кодека : S_TEXT/UTF8
  139. Идентификатор кодека/Информация : UTF-8 Plain Text
  140. Продолжительность : 3 м. 8 с.
  141. Битрейт : 50 бит/сек
  142. ElementCount : 25
  143. Размер потока : 1,17 Кбайт (0%)
  144. Заголовок : Forced
  145. Язык : Ukrainian
  146. Default : Нет
  147. Forced : Нет
  148.  
  149. Текст #4
  150. Идентификатор : 8
  151. Формат : UTF-8
  152. Идентификатор кодека : S_TEXT/UTF8
  153. Идентификатор кодека/Информация : UTF-8 Plain Text
  154. Продолжительность : 2 ч. 41 м.
  155. Битрейт : 57 бит/сек
  156. ElementCount : 1885
  157. Размер потока : 68,3 Кбайт (0%)
  158. Заголовок : Full
  159. Язык : English
  160. Default : Нет
  161. Forced : Нет
  162.  
  163. Текст #5
  164. Идентификатор : 9
  165. Формат : UTF-8
  166. Идентификатор кодека : S_TEXT/UTF8
  167. Идентификатор кодека/Информация : UTF-8 Plain Text
  168. Продолжительность : 2 ч. 44 м.
  169. Битрейт : 71 бит/сек
  170. ElementCount : 2095
  171. Размер потока : 86,5 Кбайт (0%)
  172. Заголовок : SDH-Colored
  173. Язык : English
  174. Default : Нет
  175. Forced : Нет
  176.  
  177. Меню
  178. 00:00:00.000 : en:Django Unchained
  179. 00:03:36.466 : en:1858 - Somewhere in Texas
  180. 00:12:47.933 : en:Daughtrey, TX
  181. 00:18:49.419 : en:Sheriff Bill Sharp
  182. 00:26:48.273 : en:Tennessee
  183. 00:31:44.527 : en:"You mean you wanna dress like that?"
  184. 00:40:27.133 : en:It's a Raid
  185. 00:46:05.512 : en:The Legend of Broomhilda
  186. 00:52:36.862 : en:Smitty Bacall
  187. 00:58:12.822 : en:Mississippi
  188. 01:02:20.319 : en:One-Eyed Charlie
  189. 01:12:13.495 : en:The Ride to Candieland
  190. 01:18:35.794 : en:The Trackers
  191. 01:26:08.037 : en:Candieland
  192. 01:34:49.642 : en:Dr. Schultz Meets Broomhilda
  193. 01:40:52.379 : en:"You know what I like."
  194. 01:45:34.036 : en:Eskimo Joe
  195. 01:50:01.094 : en:"You scarin' me."
  196. 01:55:03.980 : en:Old Ben
  197. 02:03:54.969 : en:"Please stop playing Beethoven."
  198. 02:08:14.103 : en:"Broomhilda Von Shaft, consider yourself a free woman."
  199. 02:14:14.379 : en:"Django, we got your woman."
  200. 02:17:28.990 : en:Castration Scene
  201. 02:22:32.544 : en:Lequint Dickey Mining Company
  202. 02:26:28.529 : en:"He weren't no slave."
  203. 02:33:00.462 : en:Django Says Goodbye to Dr. Schultz
  204. 02:35:41.999 : en:"In the sweet by and by."
  205. 02:41:30.931 : en:"They will call you the fastest gun in the south."
RAW Paste Data