srsfknbznsinhere

[KiteSeekers-Wasurenai] Tantei Kageki Milky Holmes TD - 02 [

Feb 21st, 2015
219
Never
Not a member of Pastebin yet? Sign Up, it unlocks many cool features!
  1. General
  2. Format : Matroska
  3. Format version : Version 4 / Version 2
  4. File size : 404 MiB
  5. Duration : 24mn 0s
  6. Overall bit rate mode : Variable
  7. Overall bit rate : 2 351 Kbps
  8. Encoded date : UTC 2015-01-16 23:32:45
  9. Writing application : mkvmerge v6.6.0 ('The Edge Of The In Between') built on Dec 1 2013 17:55:00
  10. Writing library : libebml v1.3.0 + libmatroska v1.4.1
  11. Attachment : BurstMyBubble.ttf / CARTOON.TTF / Complete in Him.ttf / FORTE.TTF / Kautiva Type-K.ttf / MEMORIA.TTF / Montara Gothic.otf / MyriadPro-Semibold.otf / MyriadPro-SemiboldIt.otf / WiggleBold.otf / alien5.ttf / arial.ttf / arial_narrow.TTF / cheyenne.ttf / corbel.ttf / deathrattlebb_reg.ttf / icedeart.ttf / impact.ttf / jsmalle.fon / linkin.ttf / meiryo.ttc / meiryob.ttc / scar6.ttf / sere1255.fon / sere1256.fon / sere1257.fon / serf1255.fon / serf1256.fon / serf1257.fon / serife.fon / serifee.fon / serifeg.fon / serifer.fon / serifet.fon / seriff.fon / seriffe.fon / seriffg.fon / seriffr.fon / serifft.fon / smae1255.fon / smae1257.fon / smalle.fon / smallee.fon / smalleg.fon / smaller.fon
  12.  
  13. Video
  14. ID : 1
  15. Format : AVC
  16. Format/Info : Advanced Video Codec
  17. Format profile : High 10@L3.1
  18. Format settings, CABAC : Yes
  19. Format settings, ReFrames : 4 frames
  20. Codec ID : V_MPEG4/ISO/AVC
  21. Duration : 24mn 0s
  22. Bit rate : 2 081 Kbps
  23. Width : 1 280 pixels
  24. Height : 720 pixels
  25. Display aspect ratio : 16:9
  26. Frame rate mode : Constant
  27. Frame rate : 23.976 fps
  28. Color space : YUV
  29. Chroma subsampling : 4:2:0
  30. Bit depth : 10 bits
  31. Scan type : Progressive
  32. Bits/(Pixel*Frame) : 0.094
  33. Stream size : 357 MiB (88%)
  34. Title : Episode 2 - The Perfect Fool
  35. Writing library : x264 core 133 r2334 a3ac64b
  36. Encoding settings : cabac=1 / ref=4 / deblock=1:0:0 / analyse=0x3:0x113 / me=umh / subme=9 / psy=1 / psy_rd=1.00:0.00 / mixed_ref=1 / me_range=24 / chroma_me=1 / trellis=1 / 8x8dct=1 / cqm=0 / deadzone=21,11 / fast_pskip=0 / chroma_qp_offset=-2 / threads=3 / lookahead_threads=1 / sliced_threads=0 / nr=0 / decimate=1 / interlaced=0 / bluray_compat=0 / constrained_intra=0 / bframes=5 / b_pyramid=2 / b_adapt=2 / b_bias=0 / direct=1 / weightb=1 / open_gop=0 / weightp=2 / keyint=250 / keyint_min=23 / scenecut=40 / intra_refresh=0 / rc_lookahead=40 / rc=crf / mbtree=1 / crf=19.0 / qcomp=0.60 / qpmin=0 / qpmax=81 / qpstep=4 / ip_ratio=1.40 / aq=2:1.00
  37. Language : Japanese
  38. Default : Yes
  39. Forced : No
  40.  
  41. Audio
  42. ID : 2
  43. Format : Vorbis
  44. Format settings, Floor : 1
  45. Codec ID : A_VORBIS
  46. Duration : 24mn 0s
  47. Bit rate mode : Variable
  48. Bit rate : 224 Kbps
  49. Channel(s) : 2 channels
  50. Sampling rate : 48.0 KHz
  51. Compression mode : Lossy
  52. Stream size : 38.5 MiB (10%)
  53. Title : 2.0 AAC
  54. Writing library : aoTuV 20110424 (UTC 2011-04-24)
  55. Language : Japanese
  56. Default : Yes
  57. Forced : No
  58.  
  59. Text
  60. ID : 3
  61. Format : ASS
  62. Codec ID : S_TEXT/ASS
  63. Codec ID/Info : Advanced Sub Station Alpha
  64. Compression mode : Lossless
  65. Title : Styled Subtitles
  66. Language : English
  67. Default : Yes
  68. Forced : No
  69.  
  70. Menu
  71. 00:00:00.000 : :Prolouge
  72. 00:00:39.915 : :Opening
  73. 00:02:17.971 : :Part A
  74. 00:09:54.969 : :Eyecatch
  75. 00:10:04.854 : :Part B
  76. 00:22:02.988 : :Ending
  77. 00:23:32.912 : :Preview
RAW Paste Data