SHARE
TWEET

Media Info

a guest Jun 25th, 2019 62 Never
Not a member of Pastebin yet? Sign Up, it unlocks many cool features!
  1. Format                      : Matroska
  2. Format version              : Version 4
  3. File size                   : 1.61 GiB
  4. Duration                    : 1 h 46 min
  5. Overall bit rate            : 2 178 kb/s
  6. Movie name                  : Visit: MkvHub.Com
  7. Encoded date                : UTC 2019-06-25 17:51:19 / UTC
  8. Writing application         : mkvmerge v28.2.0 ('The Awakening') 64-bit
  9. Writing library             : libebml v1.3.6 + libmatroska v1.4.9 / Lavf55.12.0
  10.  
  11. Video
  12. ID                          : 1
  13. Format                      : AVC
  14. Format/Info                 : Advanced Video Codec
  15. Format profile              : High@L4
  16. Format settings             : CABAC / 4 Ref Frames
  17. Format settings, CABAC      : Yes
  18. Format settings, ReFrames   : 4 frames
  19. Codec ID                    : V_MPEG4/ISO/AVC
  20. Duration                    : 1 h 46 min
  21. Bit rate                    : 2 048 kb/s
  22. Width                       : 1 920 pixels
  23. Height                      : 804 pixels
  24. Display aspect ratio        : 2.40:1
  25. Frame rate mode             : Constant
  26. Frame rate                  : 23.976 (24000/1001) FPS
  27. Color space                 : YUV
  28. Chroma subsampling          : 4:2:0
  29. Bit depth                   : 8 bits
  30. Scan type                   : Progressive
  31. Bits/(Pixel*Frame)          : 0.055
  32. Stream size                 : 1.47 GiB (91%)
  33. Title                       : MkvHub.Com
  34. Writing library             : x264 core 142 r2479 dd79a61
  35. Encoding settings           : cabac=1 / ref=3 / deblock=1:0:0 / analyse=0x3:0x113 / me=hex / subme=7 / psy=1 / psy_rd=1.00:0.00 / mixed_ref=1 / me_range=16 / chroma_me=1 / trellis=1 / 8x8dct=1 / cqm=0 / deadzone=21,11 / fast_pskip=1 / chroma_qp_offset=-2 / threads=12 / lookahead_threads=2 / sliced_threads=0 / nr=0 / decimate=1 / interlaced=0 / bluray_compat=0 / constrained_intra=0 / bframes=3 / b_pyramid=2 / b_adapt=1 / b_bias=0 / direct=1 / weightb=1 / open_gop=0 / weightp=2 / keyint=240 / keyint_min=24 / scenecut=40 / intra_refresh=0 / rc_lookahead=40 / rc=abr / mbtree=1 / bitrate=2048 / ratetol=1.0 / qcomp=0.60 / qpmin=0 / qpmax=69 / qpstep=4 / vbv_maxrate=25000 / vbv_bufsize=31250 / nal_hrd=none / filler=0 / ip_ratio=1.40 / aq=1:1.00
  36. Default                     : Yes
  37. Forced                      : No
  38. Color range                 : Limited
  39. Color primaries             : BT.709
  40. Transfer characteristics    : BT.709
  41. Matrix coefficients         : BT.709
  42.  
  43. Audio
  44. ID                          : 2
  45. Format                      : AAC LC SBR
  46. Format/Info                 : Advanced Audio Codec Low Complexity with Spectral Band Replication
  47. Commercial name             : HE-AAC
  48. Format settings             : NBC
  49. Codec ID                    : A_AAC-5
  50. Duration                    : 1 h 46 min
  51. Bit rate                    : 192 kb/s
  52. Channel(s)                  : 6 channels
  53. Channel layout              : C L R Ls Rs LFE
  54. Sampling rate               : 48.0 kHz
  55. Frame rate                  : 23.438 FPS (2048 SPF)
  56. Compression mode            : Lossy
  57. Delay relative to video     : -105 ms
  58. Stream size                 : 146 MiB (9%)
  59. Title                       : MkvHub.Com
  60. Language                    : English
  61. Default                     : Yes
  62. Forced                      : No
  63.  
  64. Text
  65. ID                          : 3
  66. Format                      : UTF-8
  67. Codec ID                    : S_TEXT/UTF8
  68. Codec ID/Info               : UTF-8 Plain Text
  69. Duration                    : 1 h 43 min
  70. Bit rate                    : 46 b/s
  71. Count of elements           : 1166
  72. Stream size                 : 35.5 KiB (0%)
  73. Title                       : MkvHub.Com
  74. Language                    : English
  75. Default                     : Yes
  76. Forced                      : No
  77.  
  78. Menu
  79. 00:00:00.000                : :Chapter 1
  80. 00:09:47.170                : :Chapter 2
  81. 00:19:14.319                : :Chapter 3
  82. 00:29:48.119                : :Chapter 4
  83. 00:40:15.121                : :Chapter 5
  84. 00:49:55.492                : :Chapter 6
  85. 01:00:25.622                : :Chapter 7
  86. 01:10:20.925                : :Chapter 8
  87. 01:20:31.243                : :Chapter 9
  88. 01:30:14.617                : :Chapter 10
  89. 01:39:27.378                : :Chapter 11
RAW Paste Data
We use cookies for various purposes including analytics. By continuing to use Pastebin, you agree to our use of cookies as described in the Cookies Policy. OK, I Understand
 
Top