seleZennet

Untitled

Mar 20th, 2020
149
Never
Not a member of Pastebin yet? Sign Up, it unlocks many cool features!
  1. General
  2. Unique ID : 47533523900373019547153062403248593678 (0x23C29FAB140A89190AE84AAE03A59B0E)
  3. Complete name : E:\Video111\Zombieland.Double.Tap.2019.Lic.BDRip.1080p.seleZen.mkv
  4. Format : Matroska
  5. Format version : Version 4
  6. File size : 10.1 GiB
  7. Duration : 1 h 39 min
  8. Overall bit rate : 14.6 Mb/s
  9. Movie name : Zombieland Double Tap 2019 from селезень
  10. Encoded date : UTC 2020-03-20 17:56:04
  11. Writing application : mkvmerge v40.0.0 ('Old Town Road + Pony') 64-bit
  12. Writing library : libebml v1.3.9 + libmatroska v1.5.2
  13.  
  14. Video
  15. ID : 1
  16. Format : AVC
  17. Format/Info : Advanced Video Codec
  18. Format profile : High@L4.1
  19. Format settings : CABAC / 5 Ref Frames
  20. Format settings, CABAC : Yes
  21. Format settings, Reference : 5 frames
  22. Codec ID : V_MPEG4/ISO/AVC
  23. Duration : 1 h 39 min
  24. Bit rate : 12.7 Mb/s
  25. Width : 1 920 pixels
  26. Height : 804 pixels
  27. Display aspect ratio : 2.40:1
  28. Frame rate mode : Constant
  29. Frame rate : 23.976 (24000/1001) FPS
  30. Color space : YUV
  31. Chroma subsampling : 4:2:0
  32. Bit depth : 8 bits
  33. Scan type : Progressive
  34. Bits/(Pixel*Frame) : 0.343
  35. Stream size : 8.78 GiB (87%)
  36. Writing library : x264 core 158 r2984+49 6932f4a t_mod_New [0-bit@all X86_64]
  37. Encoding settings : cabac=1 / ref=5 / deblock=1:-3:-3 / analyse=0x3:0x133 / me=umh / subme=10 / psy=1 / fade_compensate=0.00 / psy_rd=1.00:0.00 / mixed_ref=1 / me_range=32 / chroma_me=1 / trellis=2 / 8x8dct=1 / cqm=0 / deadzone=21,11 / fast_pskip=0 / chroma_qp_offset=-2 / threads=16 / lookahead_threads=4 / sliced_threads=0 / nr=0 / decimate=0 / interlaced=0 / bluray_compat=0 / constrained_intra=0 / fgo=0 / bframes=12 / b_pyramid=2 / b_adapt=2 / b_bias=0 / direct=3 / weightb=1 / open_gop=0 / weightp=2 / keyint=480 / keyint_min=24 / scenecut=40 / intra_refresh=0 / rc_lookahead=80 / rc=crf / mbtree=0 / crf=17.0000 / qcomp=0.60 / qpmin=0:0:0 / qpmax=69:69:69 / qpstep=4 / vbv_maxrate=62500 / vbv_bufsize=78125 / crf_max=0.0 / nal_hrd=none / filler=0 / ip_ratio=1.30 / pb_ratio=1.20 / aq=3:0.80 / aq-sensitivity=10.00 / aq-factor=1.00:1.00:1.00 / aq2=0 / aq3=0
  38. Language : English
  39. Default : Yes
  40. Forced : No
  41. Color range : Limited
  42. Color primaries : BT.709
  43. Transfer characteristics : BT.709
  44. Matrix coefficients : BT.709
  45.  
  46. Audio #1
  47. ID : 2
  48. Format : AC-3
  49. Format/Info : Audio Coding 3
  50. Commercial name : Dolby Digital
  51. Codec ID : A_AC3
  52. Duration : 1 h 39 min
  53. Bit rate mode : Constant
  54. Bit rate : 640 kb/s
  55. Channel(s) : 6 channels
  56. Channel layout : L R C LFE Ls Rs
  57. Sampling rate : 48.0 kHz
  58. Frame rate : 31.250 FPS (1536 SPF)
  59. Compression mode : Lossy
  60. Stream size : 453 MiB (4%)
  61. Title : Dub [License]
  62. Language : Russian
  63. Service kind : Complete Main
  64. Default : Yes
  65. Forced : Yes
  66.  
  67. Audio #2
  68. ID : 3
  69. Format : AC-3
  70. Format/Info : Audio Coding 3
  71. Commercial name : Dolby Digital
  72. Codec ID : A_AC3
  73. Duration : 1 h 39 min
  74. Bit rate mode : Constant
  75. Bit rate : 640 kb/s
  76. Channel(s) : 6 channels
  77. Channel layout : L R C LFE Ls Rs
  78. Sampling rate : 48.0 kHz
  79. Frame rate : 31.250 FPS (1536 SPF)
  80. Compression mode : Lossy
  81. Stream size : 453 MiB (4%)
  82. Title : Dub [License]
  83. Language : Ukrainian
  84. Service kind : Complete Main
  85. Default : No
  86. Forced : No
  87.  
  88. Audio #3
  89. ID : 4
  90. Format : AC-3
  91. Format/Info : Audio Coding 3
  92. Commercial name : Dolby Digital
  93. Codec ID : A_AC3
  94. Duration : 1 h 39 min
  95. Bit rate mode : Constant
  96. Bit rate : 640 kb/s
  97. Channel(s) : 6 channels
  98. Channel layout : L R C LFE Ls Rs
  99. Sampling rate : 48.0 kHz
  100. Frame rate : 31.250 FPS (1536 SPF)
  101. Compression mode : Lossy
  102. Stream size : 453 MiB (4%)
  103. Title : Original
  104. Language : English
  105. Service kind : Complete Main
  106. Default : No
  107. Forced : No
  108.  
  109. Text #1
  110. ID : 5
  111. Format : UTF-8
  112. Codec ID : S_TEXT/UTF8
  113. Codec ID/Info : UTF-8 Plain Text
  114. Duration : 1 h 37 min
  115. Bit rate : 1 b/s
  116. Count of elements : 35
  117. Stream size : 1.42 KiB (0%)
  118. Title : Forced
  119. Language : Russian
  120. Default : Yes
  121. Forced : Yes
  122.  
  123. Text #2
  124. ID : 6
  125. Format : UTF-8
  126. Codec ID : S_TEXT/UTF8
  127. Codec ID/Info : UTF-8 Plain Text
  128. Duration : 1 h 38 min
  129. Bit rate : 106 b/s
  130. Count of elements : 1736
  131. Stream size : 76.7 KiB (0%)
  132. Title : Full
  133. Language : Russian
  134. Default : No
  135. Forced : No
  136.  
  137. Text #3
  138. ID : 7
  139. Format : UTF-8
  140. Codec ID : S_TEXT/UTF8
  141. Codec ID/Info : UTF-8 Plain Text
  142. Duration : 1 h 38 min
  143. Bit rate : 112 b/s
  144. Count of elements : 1467
  145. Stream size : 81.1 KiB (0%)
  146. Title : Full
  147. Language : Ukrainian
  148. Default : No
  149. Forced : No
  150.  
  151. Text #4
  152. ID : 8
  153. Format : UTF-8
  154. Codec ID : S_TEXT/UTF8
  155. Codec ID/Info : UTF-8 Plain Text
  156. Duration : 1 h 38 min
  157. Bit rate : 138 b/s
  158. Count of elements : 1809
  159. Stream size : 100 KiB (0%)
  160. Title : Full v.2
  161. Language : Russian
  162. Default : No
  163. Forced : No
  164.  
  165. Text #5
  166. ID : 9
  167. Format : UTF-8
  168. Codec ID : S_TEXT/UTF8
  169. Codec ID/Info : UTF-8 Plain Text
  170. Duration : 28 min 6 s
  171. Bit rate : 0 b/s
  172. Count of elements : 7
  173. Stream size : 157 Bytes (0%)
  174. Title : Forced
  175. Language : English
  176. Default : No
  177. Forced : No
  178.  
  179. Text #6
  180. ID : 10
  181. Format : UTF-8
  182. Codec ID : S_TEXT/UTF8
  183. Codec ID/Info : UTF-8 Plain Text
  184. Duration : 1 h 38 min
  185. Bit rate : 83 b/s
  186. Count of elements : 1805
  187. Stream size : 60.2 KiB (0%)
  188. Title : Full
  189. Language : English
  190. Default : No
  191. Forced : No
  192.  
  193. Menu
  194. 00:00:00.000 : en:Chapter 1
  195. 00:05:00.675 : en:Chapter 2
  196. 00:11:08.001 : en:Chapter 3
  197. 00:15:24.507 : en:Chapter 4
  198. 00:21:16.192 : en:Chapter 5
  199. 00:29:15.545 : en:Chapter 6
  200. 00:36:55.422 : en:Chapter 7
  201. 00:44:03.015 : en:Chapter 8
  202. 00:50:12.968 : en:Chapter 9
  203. 00:57:52.511 : en:Chapter 10
  204. 01:03:51.870 : en:Chapter 11
  205. 01:06:50.048 : en:Chapter 12
  206. 01:10:12.125 : en:Chapter 13
  207. 01:15:40.119 : en:Chapter 14
  208. 01:23:45.312 : en:Chapter 15
  209. 01:29:48.216 : en:Chapter 16
RAW Paste Data