Interfilm

Untitled

Jun 12th, 2014
233
Never
Not a member of Pastebin yet? Sign Up, it unlocks many cool features!
  1. General
  2. Black.Butler.2014.Blu.Ray.720p.CINEMANIA.mkv
  3. Format : Matroska
  4. Format version : Version 4 / Version 2
  5. File size : 5.28 GiB
  6. Duration : 1h 59mn
  7. Overall bit rate : 6 331 Kbps
  8. Movie name : Release Group CINEMANIA
  9. Encoded date : UTC 2014-06-12 19:21:18
  10. Writing application : mkvmerge v7.0.0 ('Where We Going') 64bit built on Jun 9 2014 15:16:27
  11. Writing library : libebml v1.3.0 + libmatroska v1.4.1
  12.  
  13. Video
  14. ID : 1
  15. Format : AVC
  16. Format/Info : Advanced Video Codec
  17. Format profile : High@L4.1
  18. Format settings, CABAC : Yes
  19. Format settings, ReFrames : 12 frames
  20. Codec ID : V_MPEG4/ISO/AVC
  21. Duration : 1h 59mn
  22. Bit rate : 5 500 Kbps
  23. Width : 1 280 pixels
  24. Height : 536 pixels
  25. Display aspect ratio : 2.40:1
  26. Frame rate mode : Constant
  27. Frame rate : 23.976 fps
  28. Color space : YUV
  29. Chroma subsampling : 4:2:0
  30. Bit depth : 8 bits
  31. Scan type : Progressive
  32. Bits/(Pixel*Frame) : 0.334
  33. Stream size : 4.48 GiB (85%)
  34. Title : Release Group CINEMANIA
  35. Writing library : x264 core 136 r2348+704+51 d1baef6 tMod [8-bit@all X86]
  36. Encoding settings : cabac=1 / ref=12 / deblock=1:-2:-2 / analyse=0x3:0x133 / me=umh / subme=11 / psy=1 / fade_compensate=0.00 / psy_rd=1.05:0.05 / mixed_ref=1 / me_range=32 / chroma_me=1 / trellis=2 / 8x8dct=1 / cqm=0 / deadzone=21,11 / fast_pskip=0 / chroma_qp_offset=-3 / threads=12 / lookahead_threads=2 / sliced_threads=0 / nr=0 / decimate=0 / interlaced=0 / bluray_compat=0 / constrained_intra=0 / fgo=0 / bframes=8 / b_pyramid=2 / b_adapt=2 / b_bias=0 / direct=3 / weightb=1 / open_gop=0 / weightp=2 / keyint=250 / keyint_min=23 / scenecut=40 / intra_refresh=0 / rc=2pass / mbtree=0 / bitrate=5500 / ratetol=1.0 / qcomp=0.75 / qpmin=0:0:0 / qpmax=69:69:69 / qpstep=4 / cplxblur=20.0 / qblur=0.5 / ip_ratio=1.40 / pb_ratio=1.30 / aq=3:0.90 / aq-sensitivity=10.00 / aq-factor=1.00:1.00:1.00 / aq2=0 / aq3=0
  37. Language : Japanese
  38. Default : Yes
  39. Forced : No
  40.  
  41. Audio #1
  42. ID : 2
  43. Format : AC-3
  44. Format/Info : Audio Coding 3
  45. Mode extension : CM (complete main)
  46. Format settings, Endianness : Big
  47. Codec ID : A_AC3
  48. Duration : 1h 59mn
  49. Bit rate mode : Constant
  50. Bit rate : 192 Kbps
  51. Channel(s) : 2 channels
  52. Channel positions : Front: L R
  53. Sampling rate : 48.0 KHz
  54. Bit depth : 16 bits
  55. Compression mode : Lossy
  56. Stream size : 164 MiB (3%)
  57. Title : GREEN TEA
  58. Language : Russian
  59. Default : Yes
  60. Forced : Yes
  61.  
  62. Audio #2
  63. ID : 3
  64. Format : AC-3
  65. Format/Info : Audio Coding 3
  66. Mode extension : CM (complete main)
  67. Format settings, Endianness : Big
  68. Codec ID : A_AC3
  69. Duration : 1h 59mn
  70. Bit rate mode : Constant
  71. Bit rate : 640 Kbps
  72. Channel(s) : 6 channels
  73. Channel positions : Front: L C R, Side: L R, LFE
  74. Sampling rate : 48.0 KHz
  75. Bit depth : 16 bits
  76. Compression mode : Lossy
  77. Stream size : 547 MiB (10%)
  78. Language : Japanese
  79. Default : No
  80. Forced : No
  81.  
  82. Menu
  83. 00:00:00.000 : en:00:00:00.000
  84. 00:03:01.098 : en:00:03:01.098
  85. 00:15:09.700 : en:00:15:09.700
  86. 00:21:00.009 : en:00:21:00.009
  87. 00:27:44.580 : en:00:27:44.580
  88. 00:34:36.199 : en:00:34:36.199
  89. 00:40:05.737 : en:00:40:05.737
  90. 00:47:19.462 : en:00:47:19.462
  91. 00:53:54.565 : en:00:53:54.565
  92. 00:58:55.031 : en:00:58:55.031
  93. 01:03:27.679 : en:01:03:27.679
  94. 01:08:08.668 : en:01:08:08.668
  95. 01:15:38.159 : en:01:15:38.159
  96. 01:22:08.882 : en:01:22:08.882
  97. 01:27:48.263 : en:01:27:48.263
  98. 01:37:27.550 : en:01:37:27.550
  99. 01:44:05.072 : en:01:44:05.072
  100. 01:50:02.054 : en:01:50:02.054
RAW Paste Data