Advertisement
yushiro

p.Teleios (2017)[BDRemux 1080p].yus

Mar 21st, 2021
87
0
Never
Not a member of Pastebin yet? Sign Up, it unlocks many cool features!
text 4.64 KB | None | 0 0
  1. General
  2. Unique ID : 260129297663469498137247580895482786375 (0xC3B31493AB4191F659C364B5F530B247)
  3. Complete name : G:\Teleios (2017)[BDRemux 1080p].mkv
  4. Format : Matroska
  5. Format version : Version 4
  6. File size : 14.9 GiB
  7. Duration : 1 h 29 min
  8. Overall bit rate mode : Variable
  9. Overall bit rate : 23.7 Mb/s
  10. Encoded date : UTC 2021-03-18 18:01:13
  11. Writing application : mkvmerge v51.0.0 ('I Wish') 64-bit
  12. Writing library : libebml v1.4.0 + libmatroska v1.6.2
  13.  
  14. Video
  15. ID : 1
  16. Format : AVC
  17. Format/Info : Advanced Video Codec
  18. Format profile : High@L4.1
  19. Format settings : CABAC / 2 Ref Frames
  20. Format settings, CABAC : Yes
  21. Format settings, Reference : 2 frames
  22. Codec ID : V_MPEG4/ISO/AVC
  23. Duration : 1 h 29 min
  24. Bit rate mode : Variable
  25. Bit rate : 21.8 Mb/s
  26. Maximum bit rate : 30.2 Mb/s
  27. Width : 1 920 pixels
  28. Height : 1 080 pixels
  29. Display aspect ratio : 16:9
  30. Frame rate mode : Constant
  31. Frame rate : 23.976 (24000/1001) FPS
  32. Color space : YUV
  33. Chroma subsampling : 4:2:0
  34. Bit depth : 8 bits
  35. Scan type : Progressive
  36. Bits/(Pixel*Frame) : 0.438
  37. Stream size : 13.7 GiB (92%)
  38. Title : Teleios (2017)[BDRemux 1080p]
  39. Language : Spanish
  40. Default : Yes
  41. Forced : No
  42.  
  43. Audio #1
  44. ID : 2
  45. Format : AC-3
  46. Format/Info : Audio Coding 3
  47. Commercial name : Dolby Digital
  48. Codec ID : A_AC3
  49. Duration : 1 h 29 min
  50. Bit rate mode : Constant
  51. Bit rate : 448 kb/s
  52. Channel(s) : 2 channels
  53. Channel layout : L R
  54. Sampling rate : 44.1 kHz
  55. Frame rate : 28.711 FPS (1536 SPF)
  56. Compression mode : Lossy
  57. Stream size : 288 MiB (2%)
  58. Title : Castellano AC3 Stéreo
  59. Language : Spanish
  60. Service kind : Complete Main
  61. Default : Yes
  62. Forced : No
  63.  
  64. Audio #2
  65. ID : 3
  66. Format : DTS XLL
  67. Format/Info : Digital Theater Systems
  68. Commercial name : DTS-HD Master Audio
  69. Codec ID : A_DTS
  70. Duration : 1 h 29 min
  71. Bit rate mode : Variable
  72. Bit rate : 1 541 kb/s
  73. Channel(s) : 6 channels
  74. Channel layout : C L R Ls Rs LFE
  75. Sampling rate : 48.0 kHz
  76. Frame rate : 93.750 FPS (512 SPF)
  77. Bit depth : 16 bits
  78. Compression mode : Lossless
  79. Stream size : 991 MiB (6%)
  80. Title : Inglés DTS-HD M
  81. Language : English
  82. Default : No
  83. Forced : No
  84.  
  85. Text #1
  86. ID : 4
  87. Format : UTF-8
  88. Codec ID : S_TEXT/UTF8
  89. Codec ID/Info : UTF-8 Plain Text
  90. Duration : 1 h 20 min
  91. Bit rate : 1 b/s
  92. Count of elements : 24
  93. Stream size : 650 Bytes (0%)
  94. Title : Forzados
  95. Language : Spanish
  96. Default : Yes
  97. Forced : Yes
  98.  
  99. Text #2
  100. ID : 5
  101. Format : UTF-8
  102. Codec ID : S_TEXT/UTF8
  103. Codec ID/Info : UTF-8 Plain Text
  104. Duration : 1 h 29 min
  105. Bit rate : 61 b/s
  106. Count of elements : 802
  107. Stream size : 40.0 KiB (0%)
  108. Title : Completos
  109. Language : Spanish
  110. Default : No
  111. Forced : No
  112.  
  113. Text #3
  114. ID : 6
  115. Format : UTF-8
  116. Codec ID : S_TEXT/UTF8
  117. Codec ID/Info : UTF-8 Plain Text
  118. Duration : 1 h 25 min
  119. Bit rate : 56 b/s
  120. Count of elements : 802
  121. Stream size : 35.4 KiB (0%)
  122. Language : English
  123. Default : No
  124. Forced : No
  125.  
  126.  
Advertisement
Add Comment
Please, Sign In to add comment
Advertisement