SHARE
TWEET

Point Blank WEB-DL 1080p HEVC

dirtyharrys Jul 16th, 2019 92 Never
Not a member of Pastebin yet? Sign Up, it unlocks many cool features!
  1. General
  2. Unique ID                   : 180096268795667660274970298587096708416 (0x877D479A10B319557053F859A27E7540)
  3. Complete name               : E:\Point.Blank.2019.WEB-DL.1080p.NF.HEVC.x265\Point.Blank.2019.WEB-DL.1080p.NF.HEVC.x265.mkv
  4. Format                      : Matroska
  5. Format version              : Version 4
  6. File size                   : 2.61 GiB
  7. Duration                    : 1 h 26 min
  8. Overall bit rate            : 4 319 kb/s
  9. Movie name                  : Point Blank WEB-DL / Point Blank WEB-DL
  10. Encoded date                : UTC 2019-07-15 00:19:23
  11. Writing application         : mkvmerge v30.1.0 ('Forever And More') 32-bit
  12. Writing library             : libebml v1.3.6 + libmatroska v1.4.9
  13. Copyright                   : Movies HDs 2019
  14. ARTIST                      : HarshLearner
  15.  
  16. Video
  17. ID                          : 1
  18. Format                      : HEVC
  19. Format/Info                 : High Efficiency Video Coding
  20. Format profile              : Main 10@L4.1@High
  21. Codec ID                    : V_MPEGH/ISO/HEVC
  22. Duration                    : 1 h 26 min
  23. Bit rate                    : 2 909 kb/s
  24. Width                       : 1 920 pixels
  25. Height                      : 800 pixels
  26. Display aspect ratio        : 2.40:1
  27. Frame rate mode             : Constant
  28. Frame rate                  : 23.976 (24000/1001) FPS
  29. Color space                 : YUV
  30. Chroma subsampling          : 4:2:0
  31. Bit depth                   : 10 bits
  32. Bits/(Pixel*Frame)          : 0.079
  33. Stream size                 : 1.76 GiB (67%)
  34. Title                       : Point Blank
  35. Language                    : English
  36. Default                     : Yes
  37. Forced                      : No
  38. Color range                 : Limited
  39. Color primaries             : BT.709
  40. Transfer characteristics    : BT.709
  41. Matrix coefficients         : BT.709
  42.  
  43. Audio #1
  44. ID                          : 2
  45. Format                      : E-AC-3 JOC
  46. Format/Info                 : Enhanced AC-3 with Joint Object Coding
  47. Commercial name             : Dolby Digital Plus with Dolby Atmos
  48. Codec ID                    : A_EAC3
  49. Duration                    : 1 h 26 min
  50. Bit rate mode               : Constant
  51. Bit rate                    : 768 kb/s
  52. Channel(s)                  : 6 channels
  53. Channel layout              : L R C LFE Ls Rs
  54. Sampling rate               : 48.0 kHz
  55. Frame rate                  : 31.250 FPS (1536 SPF)
  56. Compression mode            : Lossy
  57. Stream size                 : 476 MiB (18%)
  58. Language                    : English
  59. Service kind                : Complete Main
  60. Default                     : No
  61. Forced                      : No
  62. Complexity index            : 16
  63. Number of dynamic objects   : 15
  64. Bed channel count           : 1 channel
  65. Bed channel configuration   : LFE
  66.  
  67. Audio #2
  68. ID                          : 3
  69. Format                      : E-AC-3
  70. Format/Info                 : Enhanced AC-3
  71. Commercial name             : Dolby Digital Plus
  72. Codec ID                    : A_EAC3
  73. Duration                    : 1 h 26 min
  74. Bit rate mode               : Constant
  75. Bit rate                    : 640 kb/s
  76. Channel(s)                  : 6 channels
  77. Channel layout              : L R C LFE Ls Rs
  78. Sampling rate               : 48.0 kHz
  79. Frame rate                  : 31.250 FPS (1536 SPF)
  80. Compression mode            : Lossy
  81. Stream size                 : 397 MiB (15%)
  82. Language                    : Spanish
  83. Service kind                : Complete Main
  84. Default                     : Yes
  85. Forced                      : Yes
  86.  
  87. Text #1
  88. ID                          : 4
  89. Format                      : UTF-8
  90. Codec ID                    : S_TEXT/UTF8
  91. Codec ID/Info               : UTF-8 Plain Text
  92. Duration                    : 1 h 20 min
  93. Bit rate                    : 76 b/s
  94. Count of elements           : 1384
  95. Stream size                 : 45.4 KiB (0%)
  96. Language                    : English
  97. Default                     : No
  98. Forced                      : No
  99.  
  100. Text #2
  101. ID                          : 5
  102. Format                      : UTF-8
  103. Codec ID                    : S_TEXT/UTF8
  104. Codec ID/Info               : UTF-8 Plain Text
  105. Duration                    : 1 h 21 min
  106. Bit rate                    : 83 b/s
  107. Count of elements           : 1539
  108. Stream size                 : 49.8 KiB (0%)
  109. Title                       : English SDH
  110. Language                    : English
  111. Default                     : No
  112. Forced                      : No
  113.  
  114. Text #3
  115. ID                          : 6
  116. Format                      : UTF-8
  117. Codec ID                    : S_TEXT/UTF8
  118. Codec ID/Info               : UTF-8 Plain Text
  119. Duration                    : 1 h 20 min
  120. Bit rate                    : 56 b/s
  121. Count of elements           : 1094
  122. Stream size                 : 33.3 KiB (0%)
  123. Language                    : Spanish
  124. Default                     : Yes
  125. Forced                      : Yes
  126.  
  127. Text #4
  128. ID                          : 7
  129. Format                      : UTF-8
  130. Codec ID                    : S_TEXT/UTF8
  131. Codec ID/Info               : UTF-8 Plain Text
  132. Duration                    : 1 h 20 min
  133. Bit rate                    : 53 b/s
  134. Count of elements           : 1083
  135. Stream size                 : 31.6 KiB (0%)
  136. Language                    : French
  137. Default                     : No
  138. Forced                      : No
  139.  
  140. Text #5
  141. ID                          : 8
  142. Format                      : UTF-8
  143. Codec ID                    : S_TEXT/UTF8
  144. Codec ID/Info               : UTF-8 Plain Text
  145. Duration                    : 1 h 20 min
  146. Bit rate                    : 55 b/s
  147. Count of elements           : 1120
  148. Stream size                 : 32.6 KiB (0%)
  149. Title                       : Brazilian Portuguese
  150. Language                    : Portuguese
  151. Default                     : No
  152. Forced                      : No
  153.  
  154. Text #6
  155. ID                          : 9
  156. Format                      : UTF-8
  157. Codec ID                    : S_TEXT/UTF8
  158. Codec ID/Info               : UTF-8 Plain Text
  159. Duration                    : 1 h 25 min
  160. Bit rate                    : 1 b/s
  161. Count of elements           : 30
  162. Stream size                 : 757 Bytes (0%)
  163. Language                    : Spanish
  164. Default                     : No
  165. Forced                      : No
RAW Paste Data
We use cookies for various purposes including analytics. By continuing to use Pastebin, you agree to our use of cookies as described in the Cookies Policy. OK, I Understand
 
Top