Henry_Kr

KoTIFTBoU-2019

Sep 13th, 2019
132
Never
Not a member of Pastebin yet? Sign Up, it unlocks many cool features!
  1. Video
  2. ID : 1
  3. Format : AVC
  4. Format/Info : Advanced Video Codec
  5. Format profile : Main@L4
  6. Format settings : CABAC / 3 Ref Frames
  7. Format settings, CABAC : Yes
  8. Format settings, Reference : 3 frames
  9. Muxing mode : Header stripping
  10. Codec ID : V_MPEG4/ISO/AVC
  11. Duration : 26 min 24 s
  12. Bit rate mode : Variable
  13. Bit rate : 7 500 kb/s
  14. Maximum bit rate : 11.2 Mb/s
  15. Width : 1 920 pixels
  16. Height : 1 080 pixels
  17. Display aspect ratio : 16:9
  18. Frame rate mode : Constant
  19. Frame rate : 23.976 (24000/1001) FPS
  20. Color space : YUV
  21. Chroma subsampling : 4:2:0
  22. Bit depth : 8 bits
  23. Scan type : Progressive
  24. Bits/(Pixel*Frame) : 0.151
  25. Stream size : 1.33 GiB (83%)
  26. Title : Kabaneri.of.The.Iron.Fortress.The.Battle.of.Unato.2019.Parte.I.1080p.WEB-DL.[CartoonNOW]
  27. Writing library : x264 core 148 r2715 7e75228
  28. Language : Japanese
  29. Default : Yes
  30. Forced : No
  31.  
  32. Audio #1
  33. ID : 2
  34. Format : E-AC-3
  35. Format/Info : Enhanced AC-3
  36. Commercial name : Dolby Digital Plus
  37. Muxing mode : Header stripping
  38. Codec ID : A_EAC3
  39. Duration : 26 min 24 s
  40. Bit rate mode : Constant
  41. Bit rate : 640 kb/s
  42. Channel(s) : 6 channels
  43. Channel layout : L R C LFE Ls Rs
  44. Sampling rate : 48.0 kHz
  45. Frame rate : 31.250 FPS (1536 SPF)
  46. Compression mode : Lossy
  47. Stream size : 121 MiB (7%)
  48. Title : E-AC3 5.1
  49. Language : Portuguese
  50. Service kind : Complete Main
  51. Default : Yes
  52. Forced : No
  53. Statistics Tags Issue : mkvmerge v32.0.0 ('Astral Progressions') 32-bit 2019-09-13 07:50:06 / mkvmerge v5.8.0 ('No Sleep / Pillow') built on Sep 2 2012 15:37:04 2019-09-13 15:58:52
  54. FromStats_BitRate : 640000
  55. FromStats_Duration : 00:26:24.032000000
  56. FromStats_FrameCount : 49501
  57. FromStats_StreamSize : 126722560
  58.  
  59. Audio #2
  60. ID : 3
  61. Format : E-AC-3
  62. Format/Info : Enhanced AC-3
  63. Commercial name : Dolby Digital Plus
  64. Muxing mode : Header stripping
  65. Codec ID : A_EAC3
  66. Duration : 26 min 24 s
  67. Bit rate mode : Constant
  68. Bit rate : 640 kb/s
  69. Channel(s) : 6 channels
  70. Channel layout : L R C LFE Ls Rs
  71. Sampling rate : 48.0 kHz
  72. Frame rate : 31.250 FPS (1536 SPF)
  73. Compression mode : Lossy
  74. Stream size : 121 MiB (7%)
  75. Title : E-AC3 5.1
  76. Language : Japanese
  77. Service kind : Complete Main
  78. Default : No
  79. Forced : No
  80. Statistics Tags Issue : mkvmerge v32.0.0 ('Astral Progressions') 32-bit 2019-09-13 07:50:06 / mkvmerge v5.8.0 ('No Sleep / Pillow') built on Sep 2 2012 15:37:04 2019-09-13 15:58:52
  81. FromStats_BitRate : 640000
  82. FromStats_Duration : 00:26:24.032000000
  83. FromStats_FrameCount : 49501
  84. FromStats_StreamSize : 126722560
  85.  
  86. Text #1
  87. ID : 4
  88. Format : UTF-8
  89. Codec ID : S_TEXT/UTF8
  90. Codec ID/Info : UTF-8 Plain Text
  91. Title : Forçada
  92. Language : Portuguese
  93. Default : No
  94. Forced : Yes
  95. Statistics Tags Issue : mkvmerge v32.0.0 ('Astral Progressions') 32-bit 2019-09-13 07:50:06 / mkvmerge v5.8.0 ('No Sleep / Pillow') built on Sep 2 2012 15:37:04 2019-09-13 15:58:52
  96. FromStats_BitRate : 0
  97. FromStats_Duration : 00:25:49.256000000
  98. FromStats_FrameCount : 5
  99. FromStats_StreamSize : 111
  100.  
  101. Text #2
  102. ID : 5
  103. Format : UTF-8
  104. Codec ID : S_TEXT/UTF8
  105. Codec ID/Info : UTF-8 Plain Text
  106. Title : Completa
  107. Language : Portuguese
  108. Default : No
  109. Forced : No
  110. Statistics Tags Issue : mkvmerge v32.0.0 ('Astral Progressions') 32-bit 2019-09-13 07:50:06 / mkvmerge v5.8.0 ('No Sleep / Pillow') built on Sep 2 2012 15:37:04 2019-09-13 15:58:52
  111. FromStats_BitRate : 44
  112. FromStats_Duration : 00:25:49.256000000
  113. FromStats_FrameCount : 309
  114. FromStats_StreamSize : 8654
RAW Paste Data