HYBRID_BEING

[Merchant] Danganronpa 3 ~Future~ - 02 [720p].mkv

Aug 7th, 2016
86
Never
Not a member of Pastebin yet? Sign Up, it unlocks many cool features!
  1. General
  2. Unique ID : 206370822571000617036160437083458087813 (0x9B41931E79187AE298B9092D7A01AB85)
  3. Complete name : [Merchant] Danganronpa 3 ~Future~ - 02 [720p].mkv
  4. Format : Matroska
  5. Format version : Version 4 / Version 2
  6. File size : 401 MiB
  7. Duration : 24 min
  8. Overall bit rate : 2 334 kb/s
  9. Encoded date : UTC 2016-07-18 23:09:36
  10. Writing application : mkvmerge v7.2.0 ('On Every Street') 32bit built on Sep 13 2014 15:42:11
  11. Writing library : libebml v1.3.0 + libmatroska v1.4.1
  12.  
  13. Video
  14. ID : 1
  15. Format : AVC
  16. Format/Info : Advanced Video Codec
  17. Format profile : Main@L4.1
  18. Format settings, CABAC : Yes
  19. Format settings, ReFrames : 4 frames
  20. Codec ID : V_MPEG4/ISO/AVC
  21. Duration : 24 min
  22. Bit rate : 2 145 kb/s
  23. Width : 1 280 pixels
  24. Height : 720 pixels
  25. Display aspect ratio : 16:9
  26. Frame rate mode : Constant
  27. Frame rate : 23.976 (24000/1001) FPS
  28. Color space : YUV
  29. Chroma subsampling : 4:2:0
  30. Bit depth : 8 bits
  31. Scan type : Progressive
  32. Bits/(Pixel*Frame) : 0.097
  33. Stream size : 368 MiB (92%)
  34. Writing library : x264 core 148 r2705 3f5ed56
  35. Encoding settings : cabac=1 / ref=3 / deblock=1:0:0 / analyse=0x1:0x111 / me=hex / subme=7 / psy=1 / psy_rd=1.00:0.00 / mixed_ref=1 / me_range=16 / chroma_me=1 / trellis=1 / 8x8dct=0 / cqm=0 / deadzone=21,11 / fast_pskip=1 / chroma_qp_offset=-2 / threads=12 / lookahead_threads=2 / sliced_threads=0 / nr=0 / decimate=1 / interlaced=0 / bluray_compat=0 / constrained_intra=0 / bframes=3 / b_pyramid=2 / b_adapt=1 / b_bias=0 / direct=1 / weightb=1 / open_gop=0 / weightp=2 / keyint=240 / keyint_min=1 / scenecut=40 / intra_refresh=0 / rc_lookahead=40 / rc=crf / mbtree=1 / crf=20.0 / qcomp=0.60 / qpmin=0 / qpmax=69 / qpstep=4 / ip_ratio=1.40 / aq=1:1.50
  36. Default : Yes
  37. Forced : No
  38. Color range : Limited
  39. Color primaries : BT.709
  40. Transfer characteristics : BT.709
  41. Matrix coefficients : BT.709
  42.  
  43. Audio
  44. ID : 2
  45. Format : AAC
  46. Format/Info : Advanced Audio Codec
  47. Format profile : LC
  48. Codec ID : A_AAC
  49. Duration : 24 min
  50. Bit rate : 186 kb/s
  51. Channel(s) : 2 channels
  52. Channel positions : Front: L R
  53. Sampling rate : 48.0 kHz
  54. Frame rate : 46.875 FPS (1024 spf)
  55. Compression mode : Lossy
  56. Stream size : 32.0 MiB (8%)
  57. Language : Japanese
  58. Default : Yes
  59. Forced : No
  60.  
  61. Text
  62. ID : 3
  63. Format : ASS
  64. Codec ID : S_TEXT/ASS
  65. Codec ID/Info : Advanced Sub Station Alpha
  66. Duration : 21 min
  67. Bit rate : 99 b/s
  68. Count of elements : 294
  69. Compression mode : Lossless
  70. Stream size : 15.8 KiB (0%)
  71. Language : English
  72. Default : Yes
  73. Forced : No
  74.  
  75. Menu
  76. 00:00:00.000 : :beginning
  77. 00:00:36.940 : :opening
  78. 00:02:06.900 : :sponsors
  79. 00:02:16.900 : :first half
  80. 00:11:34.930 : :second half
  81. 00:22:19.950 : :ending
  82. 00:23:49.950 : :commercial
RAW Paste Data