Henry_Kr

CDZ-S01

Sep 17th, 2019
190
Never
Not a member of Pastebin yet? Sign Up, it unlocks many cool features!
  1. Video
  2. ID : 1
  3. Format : AVC
  4. Format/Info : Advanced Video Codec
  5. Format profile : High@L4.2
  6. Format settings : CABAC / 4 Ref Frames
  7. Format settings, CABAC : Yes
  8. Format settings, Reference : 4 frames
  9. Muxing mode : Header stripping
  10. Codec ID : V_MPEG4/ISO/AVC
  11. Duration : 24 min 21 s
  12. Bit rate : 6 500 kb/s
  13. Width : 1 440 pixels
  14. Height : 1 080 pixels
  15. Display aspect ratio : 4:3
  16. Frame rate mode : Constant
  17. Frame rate : 23.976 (24000/1001) FPS
  18. Color space : YUV
  19. Chroma subsampling : 4:2:0
  20. Bit depth : 8 bits
  21. Scan type : Progressive
  22. Bits/(Pixel*Frame) : 0.174
  23. Stream size : 1.08 GiB (90%)
  24. Title : Saint.Seiya.1986.S01E01.As.Lendas.de.Uma.Nova.Era.REPACK.1080p.Bluray.[CartoonNOW]
  25. Writing library : x264 core 157 r2935 545de2f
  26. Language : Japanese
  27. Default : Yes
  28. Forced : No
  29. Color range : Limited
  30. Color primaries : BT.709
  31. Transfer characteristics : BT.709
  32. Matrix coefficients : BT.709
  33.  
  34. Audio #1
  35. ID : 2
  36. Format : AC-3
  37. Format/Info : Audio Coding 3
  38. Commercial name : Dolby Digital
  39. Muxing mode : Header stripping
  40. Codec ID : A_AC3
  41. Duration : 24 min 21 s
  42. Bit rate mode : Constant
  43. Bit rate : 192 kb/s
  44. Channel(s) : 2 channels
  45. Channel layout : L R
  46. Sampling rate : 48.0 kHz
  47. Frame rate : 31.250 FPS (1536 SPF)
  48. Bit depth : 16 bits
  49. Compression mode : Lossy
  50. Delay relative to video : 24 ms
  51. Stream size : 33.4 MiB (3%)
  52. Title : AC3 2.0 - Álamo
  53. Language : Portuguese
  54. Service kind : Complete Main
  55. Default : Yes
  56. Forced : No
  57.  
  58. Audio #2
  59. ID : 3
  60. Format : AC-3
  61. Format/Info : Audio Coding 3
  62. Commercial name : Dolby Digital
  63. Muxing mode : Header stripping
  64. Codec ID : A_AC3
  65. Duration : 24 min 21 s
  66. Bit rate mode : Constant
  67. Bit rate : 192 kb/s
  68. Channel(s) : 2 channels
  69. Channel layout : L R
  70. Sampling rate : 48.0 kHz
  71. Frame rate : 31.250 FPS (1536 SPF)
  72. Bit depth : 16 bits
  73. Compression mode : Lossy
  74. Stream size : 33.4 MiB (3%)
  75. Title : AC3 2.0 - Gota Mágica
  76. Language : Portuguese
  77. Service kind : Complete Main
  78. Default : No
  79. Forced : No
  80.  
  81. Audio #3
  82. ID : 4
  83. Format : AC-3
  84. Format/Info : Audio Coding 3
  85. Commercial name : Dolby Digital
  86. Muxing mode : Header stripping
  87. Codec ID : A_AC3
  88. Duration : 24 min 21 s
  89. Bit rate mode : Constant
  90. Bit rate : 192 kb/s
  91. Channel(s) : 2 channels
  92. Channel layout : L R
  93. Sampling rate : 48.0 kHz
  94. Frame rate : 31.250 FPS (1536 SPF)
  95. Bit depth : 16 bits
  96. Compression mode : Lossy
  97. Delay relative to video : 24 ms
  98. Stream size : 33.4 MiB (3%)
  99. Title : AC3 2.0
  100. Language : Japanese
  101. Service kind : Complete Main
  102. Default : No
  103. Forced : No
  104.  
  105. Text
  106. ID : 5
  107. Format : PGS
  108. Muxing mode : zlib
  109. Codec ID : S_HDMV/PGS
  110. Codec ID/Info : Picture based subtitle format used on BDs/HD-DVDs
  111. Title : Completa
  112. Language : Portuguese
  113. Default : No
  114. Forced : No
  115.  
  116. Menu
  117. 00:00:00.000 : en:(01)00:00:00:000
  118. 00:01:24.959 : en:(02)00:01:24:959
  119. 00:11:56.716 : en:(03)00:11:56:716
  120. 00:22:41.068 : en:(04)00:22:41:068
  121. 00:23:52.431 : en:(05)00:23:52:431
RAW Paste Data