daily pastebin goal
71%
SHARE
TWEET

BW

Pahein Aug 23rd, 2017 625 Never
Not a member of Pastebin yet? Sign Up, it unlocks many cool features!
  1. General
  2. Source                      : Baywatch 2017 Extended 1080p BluRay REMUX AVC Atmos-EPSiLON
  3. Format                      : Matroska
  4. Format version              : Version 4 / Version 2
  5. File size                   : 2.33 GiB
  6. Duration                    : 2 h 1 min
  7. Overall bit rate            : 2 744 kb/s
  8. Movie name                  : Pahe.in - Baywatch (2017)
  9. Encoded date                : UTC 2017-08-22 17:37:03
  10. Writing application         : mkvmerge v9.6.0 ('Slave To Your Mind') 64bit
  11. Writing library             : libebml v1.3.4 + libmatroska v1.4.5
  12. Cover                       : Yes
  13. Attachments                 : cover.jpg
  14.  
  15. Video
  16. ID                          : 1
  17. Format                      : AVC
  18. Format/Info                 : Advanced Video Codec
  19. Format profile              : High@L4.1
  20. Format settings, CABAC      : Yes
  21. Format settings, RefFrames  : 5 frames
  22. Codec ID                    : V_MPEG4/ISO/AVC
  23. Duration                    : 2 h 1 min
  24. Bit rate                    : 2 358 kb/s
  25. Width                       : 1 920 pixels
  26. Height                      : 804 pixels
  27. Display aspect ratio        : 2.40:1
  28. Frame rate mode             : Constant
  29. Frame rate                  : 23.976 (24000/1001) FPS
  30. Color space                 : YUV
  31. Chroma subsampling          : 4:2:0
  32. Bit depth                   : 8 bits
  33. Scan type                   : Progressive
  34. Bits/(Pixel*Frame)          : 0.064
  35. Stream size                 : 2.00 GiB (86%)
  36. Title                       : https://pahe.in
  37. Writing library             : x264 core 148 r2721 72d53ab
  38. Encoding settings           : cabac=1 / ref=5 / deblock=1:-3:-3 / analyse=0x3:0x133 / me=umh / subme=11 / psy=1 / psy_rd=1.00:0.15 / mixed_ref=1 / me_range=48 / chroma_me=1 / trellis=2 / 8x8dct=1 / cqm=0 / deadzone=21,11 / fast_pskip=0 / chroma_qp_offset=-3 / threads=25 / lookahead_threads=4 / sliced_threads=0 / nr=0 / decimate=0 / interlaced=0 / bluray_compat=0 / constrained_intra=0 / bframes=8 / b_pyramid=2 / b_adapt=2 / b_bias=0 / direct=3 / weightb=1 / open_gop=0 / weightp=2 / keyint=250 / keyint_min=23 / scenecut=40 / intra_refresh=0 / rc_lookahead=60 / rc=crf / mbtree=0 / crf=25.0 / qcomp=0.60 / qpmin=0 / qpmax=69 / qpstep=4 / vbv_maxrate=50000 / vbv_bufsize=45000 / crf_max=0.0 / nal_hrd=none / filler=0 / ip_ratio=1.40 / pb_ratio=1.30 / aq=1:0.80
  39. Default                     : Yes
  40. Forced                      : No
  41.  
  42. Audio
  43. ID                          : 2
  44. Format                      : AC-3
  45. Format/Info                 : Audio Coding 3
  46. Format settings, Endianness : Big
  47. Codec ID                    : A_AC3
  48. Duration                    : 2 h 1 min
  49. Bit rate mode               : Constant
  50. Bit rate                    : 384 kb/s
  51. Channel(s)                  : 6 channels
  52. Channel positions           : Front: L C R, Side: L R, LFE
  53. Sampling rate               : 48.0 kHz
  54. Frame rate                  : 31.250 FPS (1536 SPF)
  55. Bit depth                   : 16 bits
  56. Compression mode            : Lossy
  57. Stream size                 : 333 MiB (14%)
  58. Language                    : English
  59. Service kind                : Complete Main
  60. Default                     : No
  61. Forced                      : No
  62.  
  63. Text
  64. ID                          : 3
  65. Format                      : PGS
  66. Muxing mode                 : zlib
  67. Codec ID                    : S_HDMV/PGS
  68. Codec ID/Info               : Picture based subtitle format used on BDs/HD-DVDs
  69. Duration                    : 35 min 19 s
  70. Bit rate                    : 124 b/s
  71. Count of elements           : 16
  72. Stream size                 : 32.3 KiB (0%)
  73. Language                    : English
  74. Default                     : Yes
  75. Forced                      : No
  76.  
  77. Menu
  78. 00:00:00.000                : en:Chapter 1
  79. 00:08:55.535                : en:Chapter 2
  80. 00:16:54.347                : en:Chapter 3
  81. 00:21:01.802                : en:Chapter 4
  82. 00:29:40.946                : en:Chapter 5
  83. 00:38:03.615                : en:Chapter 6
  84. 00:44:55.067                : en:Chapter 7
  85. 00:50:33.447                : en:Chapter 8
  86. 01:01:29.936                : en:Chapter 9
  87. 01:11:48.804                : en:Chapter 10
  88. 01:19:44.655                : en:Chapter 11
  89. 01:29:00.794                : en:Chapter 12
  90. 01:35:23.176                : en:Chapter 13
  91. 01:44:31.640                : en:Chapter 14
  92. 01:50:07.267                : en:Chapter 15
  93. 01:54:52.427                : en:Chapter 16
RAW Paste Data
We use cookies for various purposes including analytics. By continuing to use Pastebin, you agree to our use of cookies as described in the Cookies Policy. OK, I Understand
 
Top